查看: 63|回复: 0

[动作片] 最后的空降兵/空降冲锋队 The.Last.Drop.2006.1080p.BluRay.x264-VOA 7.95GB

[复制链接]

 成长值: 3230

级别:资源管理组

注册时间
2017-10-20
最后登录
2019-11-21
听众
1
收听
0
主题
87390
蓝光币
63614 枚
贡献
11749 点
发表于 2019-11-7 00:34:52 | 显示全部楼层 |阅读模式
最初的空降兵/空降冲锋队 The.Last.Drop.2006.1080p.BluRay.x264-VOA 7.95GB-1.png

译  名 最初的空降兵 / 空降冲锋队 / 终极下降
片  名 The Last Drop
年  代 2005
产  地 英国
类  别 行动 / 战争 / 犯罪 / 冒险
语  言 英语
上映日期 2005-05-16
IMDb评分  4.5/10 from 2414 users
IMDb链接  https://www.imdb.com/title/tt0398029
豆瓣评分 5.6/10 from 581 users
豆瓣链接 https://movie.douban.com/subject/1483824/
片  长 103 分钟
导  演 Colin Teague
编  剧 盖瑞·扬 Gary Young
主  演 大卫·吉诺拉
       Louis Dempsey
       露西·加丝凯 Lucy Gaskell


标  签 二战 | 战争 | 英国 | 英国电影 | 2005 | 电影 | 最初的空降兵 | AlexanderSkarsgard

简  介  

  1944年玄月,英国试图在圣诞节前竣事二战。因而最高批示官下达了一项史无前例的特别使命——这就是在二战史上范围最大的一次空降突袭活动。三万五千名盟军兵士将要被空降到德国已占据的荷兰敌后。在此次空降使命中,一小组代号"火柴盒"的兵士有着自己的使命。当“火柴盒”被击落在着陆地区之外时,7名完全分歧的英国兵发现自己已经与盟军的突袭军队分手,他们的成功机遇似乎已经变的迷茫。而他们的对手是两帮德国的叛军,他们个个都是枪法精准、冷血无情、杀人不见血的郐子手,“火柴盒”小分队只能同仇敌忾。他们能否在德国军微风暴突击小分队的鼻子底下顺遂的履行这项使命?他们能否能从烽火中幸存下来?一场斗智斗勇的恶战不成避免……
  1. Video
  2. ID                                       : 1
  3. Format                                   : AVC
  4. Format/Info                              : Advanced Video Codec
  5. Format profile                           : High@L4
  6. Format settings                          : CABAC / 5 Ref Frames
  7. Format settings, CABAC                   : Yes
  8. Format settings, Reference frames        : 5 frames
  9. Codec ID                                 : V_MPEG4/ISO/AVC
  10. Duration                                 : 1 h 42 min
  11. Bit rate                                 : 9 551 kb/s
  12. Width                                    : 1 920 pixels
  13. Height                                   : 816 pixels
  14. Display aspect ratio                     : 2.35:1
  15. Frame rate mode                          : Constant
  16. Frame rate                               : 23.976 (23976/1000) FPS
  17. Color space                              : YUV
  18. Chroma subsampling                       : 4:2:0
  19. Bit depth                                : 8 bits
  20. Scan type                                : Progressive
  21. Bits/(Pixel*Frame)                       : 0.254
  22. Stream size                              : 6.70 GiB (84%)
  23. Writing library                          : x264 core 68 r1183 f21daff
  24. Encoding settings                        : cabac=1 / ref=5 / deblock=1:0:0 / analyse=0x3:0x133 / me=umh / subme=7 / psy_rd=1.0:0.0 / mixed_ref=1 / me_range=16 / chroma_me=1 / trellis=1 / 8x8dct=1 / cqm=0 / deadzone=21,11 / chroma_qp_offset=-2 / threads=3 / nr=0 / decimate=1 / mbaff=0 / bframes=3 / b_pyramid=1 / b_adapt=1 / b_bias=0 / direct=1 / wpredb=1 / keyint=250 / keyint_min=25 / scenecut=40 / rc=2pass / bitrate=9551 / ratetol=1.0 / qcomp=0.60 / qpmin=10 / qpmax=51 / qpstep=4 / cplxblur=20.0 / qblur=0.5 / ip_ratio=1.40 / pb_ratio=1.30 / aq=1:1.00
  25. Language                                 : English
  26. Default                                  : Yes
  27. Forced                                   : No

  28. Audio
  29. ID                                       : 2
  30. Format                                   : DTS
  31. Format/Info                              : Digital Theater Systems
  32. Codec ID                                 : A_DTS
  33. Duration                                 : 1 h 42 min
  34. Bit rate mode                            : Constant
  35. Bit rate                                 : 1 509 kb/s
  36. Channel(s)                               : 6 channels
  37. Channel layout                           : C L R Ls Rs LFE
  38. Sampling rate                            : 48.0 kHz
  39. Frame rate                               : 93.750 FPS (512 SPF)
  40. Bit depth                                : 24 bits
  41. Compression mode                         : Lossy
  42. Stream size                              : 1.08 GiB (14%)
  43. Language                                 : English
  44. Default                                  : Yes
  45. Forced                                   : No
复制代码

最初的空降兵/空降冲锋队 The.Last.Drop.2006.1080p.BluRay.x264-VOA 7.95GB-2.png 最初的空降兵/空降冲锋队 The.Last.Drop.2006.1080p.BluRay.x264-VOA 7.95GB-3.png 最初的空降兵/空降冲锋队 The.Last.Drop.2006.1080p.BluRay.x264-VOA 7.95GB-4.png







VIP会员免费任意下载本站所有资源!---点击开通
回复

使用道具 举报

懒得打字嘛,点击右侧快捷回复 【右侧内容,后台自定义】
您需要登录后才可以回帖 登录 | 立即注册

本版积分规则

QQ|Archiver|手机版|小黑屋| 中国高清网 |网站地图

GMT+8, 2019-11-22 05:00 , Processed in 0.216436 second(s), 37 queries .

Powered by HDchina X3.4

Copyright 2017-2019©HDchina.All right reserved

返回顶部 联系我们