查看: 27|回复: 0

[剧情片] 温斯坦利 Winstanley.1975.1080p.BluRay.x264-FLHD 7.95GB

[复制链接]

 成长值: 3210

级别:资源管理组

注册时间
2017-10-20
最后登录
2019-11-20
听众
1
收听
0
主题
87221
蓝光币
63030 枚
贡献
11580 点
发表于 2019-11-7 00:33:51 | 显示全部楼层 |阅读模式
温斯坦利 Winstanley.1975.1080p.BluRay.x264-FLHD 7.95GB-1.png

译  名 温斯坦利
片  名 Winstanley
年  代 1975
产  地 英国
类  别 剧情
语  言 英语
上映日期 1975
IMDb评分  7.0/10 from 273 users
IMDb链接  https://www.imdb.com/title/tt0073911
豆瓣评分 0/10 from 0 users
豆瓣链接 https://movie.douban.com/subject/3876195/
片  长 95 分钟
导  演 Kevin Brownlow
编  剧 Kevin Brownlow / David Caute
主  演 Miles Halliwell
       Jerome Willis
       Terry Higgins


标  签 KevinBrownlow | 英国 | UK | 英国电影 | 美国电影 | 没有下载来历2 | 掘地派活动 | 共产主义

简  介  

  Description: 1649. With poverty and unrest sweeping England, a group of impoverished men and women, known as the diggers, form a settlement on St George's Hill, Surrey. Inspired by the visionary leadership of Gerrard Winstanley, the commune's tireless, yet peaceful, attempts to assert their right to cultivate and share the wealth of the common land, are met with crushing hostility from local landowners and government troops.
  With Winstanley, filmmakers Brownlow and Mollo (the creators of It Happened Here) have produced an astonishingly authentic historical film, and a powerful, moving story of one extraordinary man's vision.
  1. Video
  2. ID                                       : 1
  3. Format                                   : AVC
  4. Format/Info                              : Advanced Video Codec
  5. Format profile                           : High@L4
  6. Format settings                          : CABAC / 4 Ref Frames
  7. Format settings, CABAC                   : Yes
  8. Format settings, Reference frames        : 4 frames
  9. Codec ID                                 : V_MPEG4/ISO/AVC
  10. Duration                                 : 1 h 41 min
  11. Bit rate                                 : 11.0 Mb/s
  12. Width                                    : 1 440 pixels
  13. Height                                   : 1 080 pixels
  14. Display aspect ratio                     : 4:3
  15. Frame rate mode                          : Constant
  16. Frame rate                               : 23.976 FPS
  17. Color space                              : YUV
  18. Chroma subsampling                       : 4:2:0
  19. Bit depth                                : 8 bits
  20. Scan type                                : Progressive
  21. Bits/(Pixel*Frame)                       : 0.295
  22. Stream size                              : 7.65 GiB (96%)
  23. Writing library                          : x264 core 67 r1165 6841c5e
  24. Encoding settings                        : cabac=1 / ref=4 / deblock=1:-1:-1 / analyse=0x3:0x113 / me=umh / subme=7 / psy_rd=1.0:0.0 / mixed_ref=1 / me_range=16 / chroma_me=1 / trellis=2 / 8x8dct=1 / cqm=0 / deadzone=21,11 / chroma_qp_offset=-2 / threads=6 / nr=0 / decimate=1 / mbaff=0 / bframes=3 / b_pyramid=0 / b_adapt=2 / b_bias=0 / direct=3 / wpredb=1 / keyint=250 / keyint_min=25 / scenecut=40 / rc=2pass / bitrate=10986 / ratetol=1.0 / qcomp=0.60 / qpmin=10 / qpmax=51 / qpstep=4 / cplxblur=20.0 / qblur=0.5 / vbv_maxrate=50000 / vbv_bufsize=50000 / ip_ratio=1.40 / pb_ratio=1.30 / aq=1:1.00
  25. Language                                 : English
  26. Default                                  : Yes
  27. Forced                                   : No

  28. Audio
  29. ID                                       : 2
  30. Format                                   : AC-3
  31. Format/Info                              : Audio Coding 3
  32. Commercial name                          : Dolby Digital
  33. Codec ID                                 : A_AC3
  34. Duration                                 : 1 h 41 min
  35. Bit rate mode                            : Constant
  36. Bit rate                                 : 192 kb/s
  37. Channel(s)                               : 2 channels
  38. Channel layout                           : L R
  39. Sampling rate                            : 48.0 kHz
  40. Frame rate                               : 31.250 FPS (1536 SPF)
  41. Bit depth                                : 16 bits
  42. Compression mode                         : Lossy
  43. Stream size                              : 140 MiB (2%)
  44. Language                                 : English
  45. Service kind                             : Complete Main
  46. Default                                  : Yes
  47. Forced                                   : No
复制代码

温斯坦利 Winstanley.1975.1080p.BluRay.x264-FLHD 7.95GB-2.png 温斯坦利 Winstanley.1975.1080p.BluRay.x264-FLHD 7.95GB-3.png 温斯坦利 Winstanley.1975.1080p.BluRay.x264-FLHD 7.95GB-4.png







VIP会员免费任意下载本站所有资源!---点击开通
回复

使用道具 举报

懒得打字嘛,点击右侧快捷回复 【右侧内容,后台自定义】
您需要登录后才可以回帖 登录 | 立即注册

本版积分规则

QQ|Archiver|手机版|小黑屋| 中国高清网 |网站地图

GMT+8, 2019-11-20 10:19 , Processed in 0.352832 second(s), 37 queries .

Powered by HDchina X3.4

Copyright 2017-2019©HDchina.All right reserved

返回顶部 联系我们