查看: 17|回复: 0

[喜剧片] 雄起日/G片初体验 Humpday.2009.1080p.AMZN.WEBRip.DDP5.1.x264-FGT 7.41GB

[复制链接]

 成长值: 3140

级别:资源管理组

注册时间
2017-10-20
最后登录
2019-11-11
听众
1
收听
0
主题
86761
蓝光币
61615 枚
贡献
11119 点
发表于 7 天前 | 显示全部楼层 |阅读模式
雄起日/G片初体验 Humpday.2009.1080p.AMZN.WEBRip.DDP5.1.x264-FGT 7.41GB-1.png

译  名 雄起日 / G片初体验 / 同床初体验
片  名 Humpday
年  代 2009
产  地 美国
类  别 笑剧
语  言 英语
上映日期 2009-01-16
IMDb评分  6.0/10 from 5196 users
IMDb链接  https://www.imdb.com/title/tt1334537
豆瓣评分 5.7/10 from 898 users
豆瓣链接 https://movie.douban.com/subject/3439924/
导  演 Lynn Shelton
编  剧 Lynn Shelton
主  演 Mark Duplass
       Joshua Leonard
       Alycia Delmore
       Lynn Shelton
       Trina Willard


标  签 美国 | 笑剧 | 美国电影 | 2009 | 同道 | 同性 | Gay | 电影

简  介  

  大学时代,安德鲁(乔舒华·莱纳德 Joshua Leonard 饰)和本(马克·杜普拉斯 Mark Duplass 饰)是黉舍里的叛逆份子,在那些疯狂的日子里,正是本和安德鲁之间的友谊让一牢记忆变得闪闪发光。结业后,本成家立业,过起了安宁而安静的生活,可安德鲁却挑选了与之相反的人生门路,成为了一位陌头艺术家,两人渐渐冷淡了交往。
  时隔多年,安德鲁的忽然出现让本欣喜若狂,在重叙往事之间,两人的心里里都布满了感慨。对于本的现状,安德鲁很是瞧不起,他带着本加入了一个疯狂的集会。在集会里,拍一部色情艺术电影成为了众人群情的主题,他们决议带着这部电影加入艺术节。很快,影片的两个主演就肯定下来了,他们居然是安德鲁和本!而在一番不胜回首的折腾以后,两人均发现,他们之间的友谊起头变质了。
  1. Video
  2. ID                                       : 2
  3. Format                                   : AVC
  4. Format/Info                              : Advanced Video Codec
  5. Format profile                           : High@L4
  6. Format settings                          : CABAC / 4 Ref Frames
  7. Format settings, CABAC                   : Yes
  8. Format settings, Reference frames        : 4 frames
  9. Codec ID                                 : V_MPEG4/ISO/AVC
  10. Duration                                 : 1 h 34 min
  11. Bit rate mode                            : Variable
  12. Bit rate                                 : 10.6 Mb/s
  13. Maximum bit rate                         : 15.0 Mb/s
  14. Width                                    : 1 920 pixels
  15. Height                                   : 1 080 pixels
  16. Display aspect ratio                     : 16:9
  17. Frame rate mode                          : Constant
  18. Frame rate                               : 23.976 (24000/1001) FPS
  19. Color space                              : YUV
  20. Chroma subsampling                       : 4:2:0
  21. Bit depth                                : 8 bits
  22. Scan type                                : Progressive
  23. Bits/(Pixel*Frame)                       : 0.214
  24. Stream size                              : 6.99 GiB (94%)
  25. Writing library                          : x264 core 148 r2623 d5b2374
  26. Encoding settings                        : cabac=1 / ref=4 / deblock=1:-1:-1 / analyse=0x3:0x133 / me=umh / subme=9 / psy=1 / psy_rd=1.00:0.15 / mixed_ref=1 / me_range=24 / chroma_me=1 / trellis=2 / 8x8dct=1 / cqm=0 / deadzone=21,11 / fast_pskip=1 / chroma_qp_offset=-3 / threads=34 / lookahead_threads=5 / sliced_threads=0 / nr=150 / decimate=1 / interlaced=0 / bluray_compat=0 / constrained_intra=0 / bframes=8 / b_pyramid=2 / b_adapt=2 / b_bias=0 / direct=3 / weightb=1 / open_gop=0 / weightp=2 / keyint=120 / keyint_min=61 / scenecut=0 / intra_refresh=0 / rc_lookahead=120 / rc=crf / mbtree=1 / crf=18.0 / qcomp=0.60 / qpmin=0 / qpmax=69 / qpstep=4 / vbv_maxrate=15000 / vbv_bufsize=31250 / crf_max=0.0 / nal_hrd=vbr / filler=0 / ip_ratio=1.40 / aq=3:1.00
  27. Default                                  : Yes
  28. Forced                                   : No
  29. Color range                              : Limited
  30. Color primaries                          : BT.709
  31. Transfer characteristics                 : BT.709
  32. Matrix coefficients                      : BT.709

  33. Audio
  34. ID                                       : 1
  35. Format                                   : E-AC-3
  36. Format/Info                              : Enhanced AC-3
  37. Commercial name                          : Dolby Digital Plus
  38. Codec ID                                 : A_EAC3
  39. Duration                                 : 1 h 34 min
  40. Bit rate mode                            : Constant
  41. Bit rate                                 : 640 kb/s
  42. Channel(s)                               : 6 channels
  43. Channel layout                           : L R C LFE Ls Rs
  44. Sampling rate                            : 48.0 kHz
  45. Frame rate                               : 31.250 FPS (1536 SPF)
  46. Compression mode                         : Lossy
  47. Stream size                              : 430 MiB (6%)
  48. Language                                 : English
  49. Service kind                             : Complete Main
  50. Default                                  : Yes
  51. Forced                                   : No

  52. Text
  53. ID                                       : 3
  54. Format                                   : UTF-8
  55. Codec ID                                 : S_TEXT/UTF8
  56. Codec ID/Info                            : UTF-8 Plain Text
  57. Duration                                 : 1 h 33 min
  58. Bit rate                                 : 85 b/s
  59. Count of elements                        : 1566
  60. Stream size                              : 58.7 KiB (0%)
  61. Language                                 : English
  62. Default                                  : No
  63. Forced                                   : No
复制代码

雄起日/G片初体验 Humpday.2009.1080p.AMZN.WEBRip.DDP5.1.x264-FGT 7.41GB-2.png 雄起日/G片初体验 Humpday.2009.1080p.AMZN.WEBRip.DDP5.1.x264-FGT 7.41GB-3.png 雄起日/G片初体验 Humpday.2009.1080p.AMZN.WEBRip.DDP5.1.x264-FGT 7.41GB-4.png 雄起日/G片初体验 Humpday.2009.1080p.AMZN.WEBRip.DDP5.1.x264-FGT 7.41GB-5.png 雄起日/G片初体验 Humpday.2009.1080p.AMZN.WEBRip.DDP5.1.x264-FGT 7.41GB-6.png 雄起日/G片初体验 Humpday.2009.1080p.AMZN.WEBRip.DDP5.1.x264-FGT 7.41GB-7.png







VIP会员免费任意下载本站所有资源!---点击开通
回复

使用道具 举报

懒得打字嘛,点击右侧快捷回复 【右侧内容,后台自定义】
您需要登录后才可以回帖 登录 | 立即注册

本版积分规则

QQ|Archiver|手机版|小黑屋| 中国高清网 |网站地图 

GMT+8, 2019-11-13 17:58 , Processed in 0.253946 second(s), 37 queries .

Powered by HDchina X3.4

Copyright 2017-2019©HDchina.All right reserved

返回顶部 联系我们