查看: 20|回复: 0

[纪录片] 我们来玩花花公子 Lets.Play.Boy.2018.1080p.AMZN.WEBRip.DDP2.0.x264-TrollHD 4.45GB

[复制链接]

 成长值: 3210

级别:资源管理组

注册时间
2017-10-20
最后登录
2019-11-20
听众
1
收听
0
主题
87221
蓝光币
63004 枚
贡献
11580 点
发表于 2019-11-6 23:15:57 | 显示全部楼层 |阅读模式
我们来玩花花令郎 Lets.Play.Boy.2018.1080p.AMZN.WEBRip.DDP2.0.x264-TrollHD 4.45GB-1.png

译  名 我们来玩,花花令郎
片  名 Let's Play, Boy
产  地 德国
类  别 记载片
语  言 英语
上映日期 2008
IMDb评分  5.8/10 from 48 users
IMDb链接  https://www.imdb.com/title/tt1229791
豆瓣评分 0/10 from 0 users
豆瓣链接 https://movie.douban.com/subject/4189718/
导  演 André Sch?fer / Ingmar Trost
编  剧 Ingmar Trost / André Sch?fer
主  演 Hugh M. Hefner
       Sammy Davis Jr.


标  签 记载片 | Documentary

简  介  

  暂无相关剧情先容
  1. Video
  2. ID                                       : 1
  3. Format                                   : AVC
  4. Format/Info                              : Advanced Video Codec
  5. Format profile                           : High@L4
  6. Format settings                          : CABAC / 4 Ref Frames
  7. Format settings, CABAC                   : Yes
  8. Format settings, Reference frames        : 4 frames
  9. Codec ID                                 : V_MPEG4/ISO/AVC
  10. Duration                                 : 58 min 0 s
  11. Bit rate mode                            : Variable
  12. Bit rate                                 : 10.8 Mb/s
  13. Maximum bit rate                         : 15.0 Mb/s
  14. Width                                    : 1 920 pixels
  15. Height                                   : 1 080 pixels
  16. Display aspect ratio                     : 16:9
  17. Frame rate mode                          : Constant
  18. Frame rate                               : 25.000 FPS
  19. Color space                              : YUV
  20. Chroma subsampling                       : 4:2:0
  21. Bit depth                                : 8 bits
  22. Scan type                                : Progressive
  23. Bits/(Pixel*Frame)                       : 0.208
  24. Stream size                              : 4.36 GiB (98%)
  25. Default                                  : Yes
  26. Forced                                   : No
  27. Color range                              : Limited
  28. Color primaries                          : BT.709
  29. Transfer characteristics                 : BT.709
  30. Matrix coefficients                      : BT.709

  31. Audio
  32. ID                                       : 2
  33. Format                                   : E-AC-3
  34. Format/Info                              : Enhanced AC-3
  35. Commercial name                          : Dolby Digital Plus
  36. Codec ID                                 : A_EAC3
  37. Duration                                 : 58 min 0 s
  38. Bit rate mode                            : Constant
  39. Bit rate                                 : 224 kb/s
  40. Channel(s)                               : 2 channels
  41. Channel layout                           : L R
  42. Sampling rate                            : 48.0 kHz
  43. Frame rate                               : 31.250 FPS (1536 SPF)
  44. Compression mode                         : Lossy
  45. Stream size                              : 92.9 MiB (2%)
  46. Language                                 : English
  47. Service kind                             : Complete Main
  48. Default                                  : Yes
  49. Forced                                   : No

  50. Text #1
  51. ID                                       : 3
  52. Format                                   : UTF-8
  53. Codec ID                                 : S_TEXT/UTF8
  54. Codec ID/Info                            : UTF-8 Plain Text
  55. Duration                                 : 57 min 56 s
  56. Bit rate                                 : 87 b/s
  57. Count of elements                        : 940
  58. Stream size                              : 36.9 KiB (0%)
  59. Language                                 : English
  60. Default                                  : No
  61. Forced                                   : No

  62. Text #2
  63. ID                                       : 4
  64. Format                                   : UTF-8
  65. Codec ID                                 : S_TEXT/UTF8
  66. Codec ID/Info                            : UTF-8 Plain Text
  67. Duration                                 : 57 min 56 s
  68. Bit rate                                 : 90 b/s
  69. Count of elements                        : 994
  70. Stream size                              : 38.5 KiB (0%)
  71. Title                                    : SDH
  72. Language                                 : English
  73. Default                                  : No
  74. Forced                                   : No
复制代码

我们来玩花花令郎 Lets.Play.Boy.2018.1080p.AMZN.WEBRip.DDP2.0.x264-TrollHD 4.45GB-2.png 我们来玩花花令郎 Lets.Play.Boy.2018.1080p.AMZN.WEBRip.DDP2.0.x264-TrollHD 4.45GB-3.png 我们来玩花花令郎 Lets.Play.Boy.2018.1080p.AMZN.WEBRip.DDP2.0.x264-TrollHD 4.45GB-4.png







VIP会员免费任意下载本站所有资源!---点击开通
回复

使用道具 举报

懒得打字嘛,点击右侧快捷回复 【右侧内容,后台自定义】
您需要登录后才可以回帖 登录 | 立即注册

本版积分规则

QQ|Archiver|手机版|小黑屋| 中国高清网 |网站地图

GMT+8, 2019-11-20 09:14 , Processed in 0.225631 second(s), 37 queries .

Powered by HDchina X3.4

Copyright 2017-2019©HDchina.All right reserved

返回顶部 联系我们