查看: 12|回复: 0

[纪录片] 毫无保留:葛洛莉娅·范德比尔特和安德森·库珀 Nothing.Left.Unsaid.Gloria.Vanderbilt.and.Anderson.Cooper.2016.1080p.AMZN.WEBRip.DDP5.1.x264-monkee 6.60GB

[复制链接]

 成长值: 3160

级别:资源管理组

注册时间
2017-10-20
最后登录
2019-11-11
听众
1
收听
0
主题
86761
蓝光币
61857 枚
贡献
11119 点
发表于 2019-11-6 23:13:08 | 显示全部楼层 |阅读模式
毫无保存:葛洛莉娅·范德比尔特和安德森·库珀 Nothing.Left.Unsaid.Gloria.Vanderbilt.and.Anderson.Cooper.2016.1080p.AMZN.WEBRip.DDP5.1.x264-monkee 6.60GB-1.png

译  名 毫无保存:葛洛莉娅·范德比尔特和安德森·库珀
片  名 Nothing Left Unsaid: Gloria Vanderbilt
年  代 2016
产  地 美国
类  别 记载片
语  言 英语
上映日期 2016-01-23
IMDb评分  7.9/10 from 589 users
IMDb链接  https://www.imdb.com/title/tt5275872
豆瓣评分 8.4/10 from 67 users
豆瓣链接 https://movie.douban.com/subject/26681650/
片  长 108分钟
导  演 Liz Garbus
主  演 葛洛莉娅·范德比尔特 Gloria Vanderbilt
       安德森·库珀 Anderson Cooper


标  签 记载片 | HBO | 美国 | 列传 | 紀錄片 | Documentary | 人生 | 2016

简  介  

  Gloria Vanderbilt and her son Anderson Cooper each tell the story of their past and present, their loves and losses, and reveal how some family stories have the tendency to repeat themselves in the most unexpected ways. World Premiere
  1. Video
  2. ID : 1
  3. Format : AVC
  4. Format/Info : Advanced Video Codec
  5. Format profile : High@L4
  6. Format settings : CABAC / 4 Ref Frames
  7. Format settings, CABAC : Yes
  8. Format settings, Reference frames : 4 frames
  9. Codec ID : V_MPEG4/ISO/AVC
  10. Duration : 1 h 47 min
  11. Bit rate mode : Variable
  12. Bit rate : 8 131 kb/s
  13. Maximum bit rate : 15.0 Mb/s
  14. Width : 1 920 pixels
  15. Height : 1 080 pixels
  16. Display aspect ratio : 16:9
  17. Frame rate mode : Constant
  18. Frame rate : 23.976 (24000/1001) FPS
  19. Color space : YUV
  20. Chroma subsampling : 4:2:0
  21. Bit depth : 8 bits
  22. Scan type : Progressive
  23. Bits/(Pixel*Frame) : 0.164
  24. Stream size : 6.11 GiB (93%)
  25. Default : Yes
  26. Forced : No
  27. Color range : Limited
  28. Color primaries : BT.709
  29. Transfer characteristics : BT.709
  30. Matrix coefficients : BT.709

  31. Audio
  32. ID : 2
  33. Format : E-AC-3
  34. Format/Info : Enhanced AC-3
  35. Commercial name : Dolby Digital Plus
  36. Codec ID : A_EAC3
  37. Duration : 1 h 47 min
  38. Bit rate mode : Constant
  39. Bit rate : 640 kb/s
  40. Channel(s) : 6 channels
  41. Channel layout : L R C LFE Ls Rs
  42. Sampling rate : 48.0 kHz
  43. Frame rate : 31.250 FPS (1536 SPF)
  44. Compression mode : Lossy
  45. Stream size : 493 MiB (7%)
  46. Language : English
  47. Service kind : Complete Main
  48. Default : Yes
  49. Forced : No

  50. Text
  51. ID : 3
  52. Format : UTF-8
  53. Codec ID : S_TEXT/UTF8
  54. Codec ID/Info : UTF-8 Plain Text
  55. Duration : 1 h 45 min
  56. Bit rate : 83 b/s
  57. Count of elements : 1700
  58. Stream size : 64.5 KiB (0%)
  59. Language : English
  60. Default : No
  61. Forced : No
复制代码

毫无保存:葛洛莉娅·范德比尔特和安德森·库珀 Nothing.Left.Unsaid.Gloria.Vanderbilt.and.Anderson.Cooper.2016.1080p.AMZN.WEBRip.DDP5.1.x264-monkee 6.60GB-2.png 毫无保存:葛洛莉娅·范德比尔特和安德森·库珀 Nothing.Left.Unsaid.Gloria.Vanderbilt.and.Anderson.Cooper.2016.1080p.AMZN.WEBRip.DDP5.1.x264-monkee 6.60GB-3.png 231131s41kd1w2k2dk5in2.png 231136i7l377wxlmztwewm.png 毫无保存:葛洛莉娅·范德比尔特和安德森·库珀 Nothing.Left.Unsaid.Gloria.Vanderbilt.and.Anderson.Cooper.2016.1080p.AMZN.WEBRip.DDP5.1.x264-monkee 6.60GB-6.png 毫无保存:葛洛莉娅·范德比尔特和安德森·库珀 Nothing.Left.Unsaid.Gloria.Vanderbilt.and.Anderson.Cooper.2016.1080p.AMZN.WEBRip.DDP5.1.x264-monkee 6.60GB-7.png







VIP会员免费任意下载本站所有资源!---点击开通
回复

使用道具 举报

懒得打字嘛,点击右侧快捷回复 【右侧内容,后台自定义】
您需要登录后才可以回帖 登录 | 立即注册

本版积分规则

QQ|Archiver|手机版|小黑屋| 中国高清网 |网站地图 

GMT+8, 2019-11-15 10:17 , Processed in 0.208520 second(s), 37 queries .

Powered by HDchina X3.4

Copyright 2017-2019©HDchina.All right reserved

返回顶部 联系我们