查看: 12|回复: 0

[剧情片] 燃烧的甘蔗 Burning.Cane.2019.1080p.NF.WEBRip.DDP5.1.x264-KAMIKAZE 4.33GB

[复制链接]

 成长值: 3160

级别:资源管理组

注册时间
2017-10-20
最后登录
2019-11-11
听众
1
收听
0
主题
86761
蓝光币
61851 枚
贡献
11119 点
发表于 2019-11-6 23:06:30 | 显示全部楼层 |阅读模式
熄灭的甘蔗 Burning.Cane.2019.1080p.NF.WEBRip.DDP5.1.x264-KAMIKAZE 4.33GB-1.png

译  名 熄灭的甘蔗 / The Glory
片  名 Burning Cane
年  代 2019
产  地 美国
类  别 剧情
语  言 英语
上映日期 2019-04-25(翠贝卡电影节)
IMDb评分  6.3/10 from 70 users
IMDb链接  https://www.imdb.com/title/tt7358154
豆瓣评分 0/10 from 0 users
豆瓣链接 https://movie.douban.com/subject/30266638/
导  演 菲利普·尤曼斯 Phillip Youmans
编  剧 菲利普·尤曼斯 Phillip Youmans
主  演 维德尔·皮尔斯 Wendell Pierce
       Emyri Crutchfield
       Karen Kaia Livers
       Erika Woods
       Dominique McClellan


标  签 P-VeniceE威尼斯日展映

简  介  

  The Glory is a film about a young man who seeks asylum in his rural hometown after committing a violent crime in the city.

获奖情况  

  第29届哥谭自力电影奖(2019)
  自力电影人奖(提名) 菲利普·尤曼斯
  1. Video
  2. ID                                       : 1
  3. Format                                   : AVC
  4. Format/Info                              : Advanced Video Codec
  5. Format profile                           : High@L4
  6. Format settings                          : CABAC / 4 Ref Frames
  7. Format settings, CABAC                   : Yes
  8. Format settings, Reference frames        : 4 frames
  9. Codec ID                                 : V_MPEG4/ISO/AVC
  10. Duration                                 : 1 h 18 min
  11. Bit rate mode                            : Variable
  12. Bit rate                                 : 7 279 kb/s
  13. Maximum bit rate                         : 20.0 Mb/s
  14. Width                                    : 1 920 pixels
  15. Height                                   : 1 080 pixels
  16. Display aspect ratio                     : 16:9
  17. Frame rate mode                          : Constant
  18. Frame rate                               : 23.976 (24000/1001) FPS
  19. Color space                              : YUV
  20. Chroma subsampling                       : 4:2:0
  21. Bit depth                                : 8 bits
  22. Scan type                                : Progressive
  23. Bits/(Pixel*Frame)                       : 0.146
  24. Stream size                              : 3.98 GiB (92%)
  25. Writing library                          : x264 core 148 r2715 7e75228
  26. Encoding settings                        : cabac=1 / ref=4 / deblock=1:0:0 / analyse=0x3:0x111 / me=umh / subme=10 / psy=1 / psy_rd=1.00:0.00 / mixed_ref=1 / me_range=120 / chroma_me=1 / trellis=2 / 8x8dct=1 / cqm=0 / deadzone=21,11 / fast_pskip=1 / chroma_qp_offset=-2 / threads=6 / lookahead_threads=1 / sliced_threads=0 / nr=0 / decimate=1 / interlaced=0 / bluray_compat=0 / stitchable=1 / constrained_intra=0 / bframes=16 / b_pyramid=2 / b_adapt=2 / b_bias=0 / direct=3 / weightb=1 / open_gop=0 / weightp=2 / keyint=240 / keyint_min=121 / scenecut=0 / intra_refresh=0 / rc_lookahead=240 / rc=crf / mbtree=1 / crf=36.0 / qcomp=0.50 / qpmin=6 / qpmax=51 / qpstep=4 / vbv_maxrate=20000 / vbv_bufsize=25000 / crf_max=0.0 / nal_hrd=vbr / filler=0 / ip_ratio=1.40 / aq=1:0.80
  27. Default                                  : Yes
  28. Forced                                   : No

  29. Audio
  30. ID                                       : 2
  31. Format                                   : E-AC-3
  32. Format/Info                              : Enhanced AC-3
  33. Commercial name                          : Dolby Digital Plus
  34. Codec ID                                 : A_EAC3
  35. Duration                                 : 1 h 18 min
  36. Bit rate mode                            : Constant
  37. Bit rate                                 : 640 kb/s
  38. Channel(s)                               : 6 channels
  39. Channel layout                           : L R C LFE Ls Rs
  40. Sampling rate                            : 48.0 kHz
  41. Frame rate                               : 31.250 FPS (1536 SPF)
  42. Compression mode                         : Lossy
  43. Stream size                              : 358 MiB (8%)
  44. Language                                 : English
  45. Service kind                             : Complete Main
  46. Default                                  : Yes
  47. Forced                                   : No

  48. Text
  49. ID                                       : 3
  50. Format                                   : UTF-8
  51. Codec ID                                 : S_TEXT/UTF8
  52. Codec ID/Info                            : UTF-8 Plain Text
  53. Duration                                 : 1 h 13 min
  54. Bit rate                                 : 64 b/s
  55. Count of elements                        : 873
  56. Stream size                              : 34.7 KiB (0%)
  57. Title                                    : SDH
  58. Language                                 : English
  59. Default                                  : No
  60. Forced                                   : No
复制代码

熄灭的甘蔗 Burning.Cane.2019.1080p.NF.WEBRip.DDP5.1.x264-KAMIKAZE 4.33GB-2.png 熄灭的甘蔗 Burning.Cane.2019.1080p.NF.WEBRip.DDP5.1.x264-KAMIKAZE 4.33GB-3.png 熄灭的甘蔗 Burning.Cane.2019.1080p.NF.WEBRip.DDP5.1.x264-KAMIKAZE 4.33GB-4.png







VIP会员免费任意下载本站所有资源!---点击开通
回复

使用道具 举报

懒得打字嘛,点击右侧快捷回复 【右侧内容,后台自定义】
您需要登录后才可以回帖 登录 | 立即注册

本版积分规则

QQ|Archiver|手机版|小黑屋| 中国高清网 |网站地图 

GMT+8, 2019-11-15 09:56 , Processed in 0.235300 second(s), 38 queries .

Powered by HDchina X3.4

Copyright 2017-2019©HDchina.All right reserved

返回顶部 联系我们