查看: 37|回复: 0

[剧情片] 薇塔与弗吉尼亚/薇塔和维吉尼亚 Vita.and.Virginia.2018.1080p.BluRay.REMUX.AVC.DTS-HD.MA.5.1-FGT 25.61GB

[复制链接]

 成长值: 3230

级别:资源管理组

注册时间
2017-10-20
最后登录
2019-11-21
听众
1
收听
0
主题
87390
蓝光币
63616 枚
贡献
11749 点
发表于 2019-11-6 22:29:00 | 显示全部楼层 |阅读模式
薇塔与弗吉尼亚/薇塔和维吉尼亚 Vita.and.Virginia.2018.1080p.BluRay.REMUX.AVC.DTS-HD.MA.5.1-FGT 25.61GB-1.png

译  名 薇塔与弗吉尼亚 / 薇塔和维吉尼亚
片  名 Vita and Virginia
年  代 2018
产  地 英国
类  别 剧情 / 恋爱 / 同性 / 列传
语  言 英语
上映日期 2018-09-11(多伦多电影节) / 2019-08-23(美国)
IMDb评分  5.4/10 from 403 users
IMDb链接  http://www.imdb.com/title/tt5859882
豆瓣评分 6.8/10 from 71 users
豆瓣链接 https://movie.douban.com/subject/26322767/
片  长 110分钟
导  演 钱亚·波顿 Chanya Button
编  剧 艾琳·阿特金斯 Eileen Atkins / 弗吉尼亚·伍尔芙 Virginia Woolf / Vita Sackville-West
主  演 杰玛·阿特登 Gemma Arterton
       伊丽莎白·德比茨基 Elizabeth Debicki
       伊莎贝拉·罗西里尼 Isabella Rossellini
       鲁伯特·彭利-琼斯 Rupert Penry-Jones
       彼得·费迪南多 Peter Ferdinando


标  签 英国 | 列传 | LGBT | VirginiaWoolf | 英国电影 | 同性 | Les | 恋爱

简  介  

  影片布景设定在20年月的伦敦,剧情将会聚焦伍尔芙与韦斯特之间的情事:弗吉尼亚·史蒂芬1912年嫁给伦纳德·伍尔夫,接着碰见了上流社会人士兼作家薇塔·萨克维尔·韦斯特——哈罗德·尼科尔森的妻子。自1922始,她们开启了一段长达十年的爱情,并保持着性关系,互通了很多情书和日志。在她们的爱情终结以后,两人仍连结着杰出的朋友关系,直到1941年伍尔芙归天。
  这将是Chanya Button自2015年《Burn Burn Burn》以后执导的第二部剧情长片,艾琳·阿特金斯编写剧本,按照她出演的同名舞台剧(1993年初次在伦敦上演,1994年登陆百老汇)改编,还会基于伍尔芙和韦斯特之间的情书停止创作。伊娃·格林和安德丽亚·瑞斯波罗格此前曾打仗过伍尔芙这个脚色,后相继退出。导演称这是一部“新颖刺激,布满缔造力、豪情与性欲”的影片。其他卡司包括伊莎贝拉·罗西里尼、鲁伯特·彭利·琼斯、彼得·费迪南多,9月爱尔兰开拍。
  1. Video
  2. ID                                       : 1
  3. Format                                   : AVC
  4. Format/Info                              : Advanced Video Codec
  5. Format profile                           : High@L4
  6. Format settings                          : CABAC / 4 Ref Frames
  7. Format settings, CABAC                   : Yes
  8. Format settings, Reference frames        : 4 frames
  9. Codec ID                                 : V_MPEG4/ISO/AVC
  10. Duration                                 : 1 h 49 min
  11. Bit rate mode                            : Variable
  12. Bit rate                                 : 27.8 Mb/s
  13. Maximum bit rate                         : 35.0 Mb/s
  14. Width                                    : 1 920 pixels
  15. Height                                   : 1 080 pixels
  16. Display aspect ratio                     : 16:9
  17. Frame rate mode                          : Constant
  18. Frame rate                               : 24.000 FPS
  19. Color space                              : YUV
  20. Chroma subsampling                       : 4:2:0
  21. Bit depth                                : 8 bits
  22. Scan type                                : Progressive
  23. Bits/(Pixel*Frame)                       : 0.558
  24. Stream size                              : 21.3 GiB (83%)
  25. Title                                    : Vita.and.Virginia.2018.1080p.BluRay.REMUX.AVC.DTS-HD.MA.5.1-FGT
  26. Language                                 : English
  27. Default                                  : No
  28. Forced                                   : No

  29. Audio #1
  30. ID                                       : 2
  31. Format                                   : DTS XLL
  32. Format/Info                              : Digital Theater Systems
  33. Commercial name                          : DTS-HD Master Audio
  34. Codec ID                                 : A_DTS
  35. Duration                                 : 1 h 49 min
  36. Bit rate mode                            : Variable
  37. Bit rate                                 : 3 266 kb/s
  38. Channel(s)                               : 6 channels
  39. Channel layout                           : C L R Ls Rs LFE
  40. Sampling rate                            : 48.0 kHz
  41. Frame rate                               : 93.750 FPS (512 SPF)
  42. Bit depth                                : 24 bits
  43. Compression mode                         : Lossless
  44. Stream size                              : 2.51 GiB (10%)
  45. Title                                    : Vita.and.Virginia.2018.1080p.BluRay.REMUX.AVC.DTS-HD.MA.5.1-FGT
  46. Language                                 : English
  47. Default                                  : Yes
  48. Forced                                   : No

  49. Audio #2
  50. ID                                       : 3
  51. Format                                   : PCM
  52. Format settings                          : Little / Signed
  53. Codec ID                                 : A_PCM/INT/LIT
  54. Duration                                 : 1 h 49 min
  55. Bit rate mode                            : Constant
  56. Bit rate                                 : 2 304 kb/s
  57. Channel(s)                               : 2 channels
  58. Sampling rate                            : 48.0 kHz
  59. Frame rate                               : 30.000 FPS (1600 SPF)
  60. Bit depth                                : 24 bits
  61. Stream size                              : 1.77 GiB (7%)
  62. Title                                    : Vita.and.Virginia.2018.1080p.BluRay.REMUX.AVC.DTS-HD.MA.5.1-FGT
  63. Language                                 : English
  64. Default                                  : No
  65. Forced                                   : No

  66. Text
  67. ID                                       : 4
  68. Format                                   : UTF-8
  69. Codec ID                                 : S_TEXT/UTF8
  70. Codec ID/Info                            : UTF-8 Plain Text
  71. Duration                                 : 1 h 41 min
  72. Bit rate                                 : 62 b/s
  73. Count of elements                        : 1350
  74. Stream size                              : 46.9 KiB (0%)
  75. Title                                    : English-SRT
  76. Language                                 : English
  77. Default                                  : Yes
  78. Forced                                   : No

  79. Menu
  80. 00:00:00.000                             : en:Chapter 01
  81. 00:06:55.291                             : en:Chapter 02
  82. 00:13:37.291                             : en:Chapter 03
  83. 00:22:19.833                             : en:Chapter 04
  84. 00:34:17.291                             : en:Chapter 05
  85. 00:48:27.208                             : en:Chapter 06
  86. 01:00:35.000                             : en:Chapter 07
  87. 01:05:07.291                             : en:Chapter 08
  88. 01:13:20.791                             : en:Chapter 09
  89. 01:29:31.166                             : en:Chapter 10
  90. 01:36:08.041                             : en:Chapter 11
  91. 01:44:28.541                             : en:Chapter 12
复制代码

薇塔与弗吉尼亚/薇塔和维吉尼亚 Vita.and.Virginia.2018.1080p.BluRay.REMUX.AVC.DTS-HD.MA.5.1-FGT 25.61GB-2.png 薇塔与弗吉尼亚/薇塔和维吉尼亚 Vita.and.Virginia.2018.1080p.BluRay.REMUX.AVC.DTS-HD.MA.5.1-FGT 25.61GB-3.png 薇塔与弗吉尼亚/薇塔和维吉尼亚 Vita.and.Virginia.2018.1080p.BluRay.REMUX.AVC.DTS-HD.MA.5.1-FGT 25.61GB-4.png







VIP会员免费任意下载本站所有资源!---点击开通
回复

使用道具 举报

懒得打字嘛,点击右侧快捷回复 【右侧内容,后台自定义】
您需要登录后才可以回帖 登录 | 立即注册

本版积分规则

QQ|Archiver|手机版|小黑屋| 中国高清网 |网站地图

GMT+8, 2019-11-22 05:29 , Processed in 0.247287 second(s), 37 queries .

Powered by HDchina X3.4

Copyright 2017-2019©HDchina.All right reserved

返回顶部 联系我们