查看: 22|回复: 0

[喜剧片] 银色圣诞/白色圣诞 White.Christmas.1954.1080p.BluRay.REMUX.AVC.DTS-HD.MA.5.1-FGT 29.42GB

[复制链接]

 成长值: 3230

级别:资源管理组

注册时间
2017-10-20
最后登录
2019-11-21
听众
1
收听
0
主题
87390
蓝光币
63614 枚
贡献
11749 点
发表于 2019-11-6 22:24:20 | 显示全部楼层 |阅读模式
银色圣诞/红色圣诞 White.Christmas.1954.1080p.BluRay.REMUX.AVC.DTS-HD.MA.5.1-FGT 29.42GB-1.png

译  名 银色圣诞 / 红色圣诞 / 红色圣诞节
片  名 White Christmas
年  代 1954
产  地 美国
类  别 笑剧 / 恋爱 / 歌舞
语  言 英语
上映日期 1954-10-14
IMDb评分  7.6/10 from 28449 users
IMDb链接  http://www.imdb.com/title/tt0047673
豆瓣评分 7.6/10 from 302 users
豆瓣链接 https://movie.douban.com/subject/1305262/
片  长 120 分钟
导  演 Michael Curtiz
编  剧 Melvin Frank / Norman Krasna
主  演 Bing Crosby
      Danny Kaye
      Rosemary Clooney


标  签 美国 | 歌舞 | 恋爱 | 音乐 | 美国电影 | 1950s | 歌舞片 | 1954

简  介  

  二次大战竣事后,从军中退伍的鲍伯和菲尔转而投身舞台,成为歌舞表演的同伴,后来经过菲尔从中穿线,先容一样处置歌舞表演的美丽姊妹花贝蒂(Rosemary Clooney饰演)和茱蒂与鲍伯熟悉,后来两姊妹应邀在圣诞节时到佛蒙州表演,两位护花使者理所固然地也随着前往,没想到约请两姊妹的旅店老板恰好是鲍伯和菲尔昔日的批示官,在这个亲友爱友团圆的圣诞时节,这群能歌善舞的男男女女又会制造出怎样的浪漫情...

获奖情况  

  第27届奥斯卡金像奖(1955)
  最好原创歌曲(提名) 艾文·伯林



  1. Video
  2. ID                                       : 1
  3. Format                                   : AVC
  4. Format/Info                              : Advanced Video Codec
  5. Format profile                           : High@L4
  6. Format settings                          : CABAC / 4 Ref Frames
  7. Format settings, CABAC                   : Yes
  8. Format settings, Reference frames        : 4 frames
  9. Codec ID                                 : V_MPEG4/ISO/AVC
  10. Duration                                 : 2 h 0 min
  11. Bit rate mode                            : Variable
  12. Bit rate                                 : 28.9 Mb/s
  13. Maximum bit rate                         : 36.0 Mb/s
  14. Width                                    : 1 920 pixels
  15. Height                                   : 1 080 pixels
  16. Display aspect ratio                     : 16:9
  17. Frame rate mode                          : Constant
  18. Frame rate                               : 23.976 (24000/1001) FPS
  19. Color space                              : YUV
  20. Chroma subsampling                       : 4:2:0
  21. Bit depth                                : 8 bits
  22. Scan type                                : Progressive
  23. Bits/(Pixel*Frame)                       : 0.581
  24. Stream size                              : 24.2 GiB (82%)
  25. Title                                    : White.Christmas.1954.1080p.BluRay.REMUX.AVC.DTS-HD.MA.5.1-FGT
  26. Language                                 : English
  27. Default                                  : No
  28. Forced                                   : No

  29. Audio #1
  30. ID                                       : 2
  31. Format                                   : DTS XLL
  32. Format/Info                              : Digital Theater Systems
  33. Commercial name                          : DTS-HD Master Audio
  34. Codec ID                                 : A_DTS
  35. Duration                                 : 2 h 0 min
  36. Bit rate mode                            : Variable
  37. Bit rate                                 : 3 367 kb/s
  38. Channel(s)                               : 6 channels
  39. Channel layout                           : C L R Ls Rs LFE
  40. Sampling rate                            : 48.0 kHz
  41. Frame rate                               : 93.750 FPS (512 SPF)
  42. Bit depth                                : 24 bits
  43. Compression mode                         : Lossless
  44. Stream size                              : 2.82 GiB (10%)
  45. Title                                    : White.Christmas.1954.1080p.BluRay.REMUX.AVC.DTS-HD.MA.5.1-FGT
  46. Language                                 : English
  47. Default                                  : Yes
  48. Forced                                   : No

  49. Audio #2
  50. ID                                       : 3
  51. Format                                   : DTS XLL
  52. Format/Info                              : Digital Theater Systems
  53. Commercial name                          : DTS-HD Master Audio
  54. Codec ID                                 : A_DTS
  55. Duration                                 : 2 h 0 min
  56. Bit rate mode                            : Variable
  57. Bit rate                                 : 1 822 kb/s
  58. Channel(s)                               : 2 channels
  59. Channel layout                           : L R
  60. Sampling rate                            : 48.0 kHz
  61. Frame rate                               : 93.750 FPS (512 SPF)
  62. Bit depth                                : 24 bits
  63. Compression mode                         : Lossless
  64. Stream size                              : 1.53 GiB (5%)
  65. Title                                    : White.Christmas.1954.1080p.BluRay.REMUX.AVC.DTS-HD.MA.5.1-FGT
  66. Language                                 : English
  67. Default                                  : No
  68. Forced                                   : No

  69. Audio #3
  70. ID                                       : 4
  71. Format                                   : AC-3
  72. Format/Info                              : Audio Coding 3
  73. Commercial name                          : Dolby Digital
  74. Codec ID                                 : A_AC3
  75. Duration                                 : 2 h 0 min
  76. Bit rate mode                            : Constant
  77. Bit rate                                 : 224 kb/s
  78. Channel(s)                               : 2 channels
  79. Channel layout                           : L R
  80. Sampling rate                            : 48.0 kHz
  81. Frame rate                               : 31.250 FPS (1536 SPF)
  82. Bit depth                                : 16 bits
  83. Compression mode                         : Lossy
  84. Stream size                              : 192 MiB (1%)
  85. Title                                    : White.Christmas.1954.1080p.BluRay.REMUX.AVC.DTS-HD.MA.5.1-FGT
  86. Language                                 : Italian
  87. Service kind                             : Complete Main
  88. Default                                  : No
  89. Forced                                   : No

  90. Audio #4
  91. ID                                       : 5
  92. Format                                   : AC-3
  93. Format/Info                              : Audio Coding 3
  94. Commercial name                          : Dolby Digital
  95. Codec ID                                 : A_AC3
  96. Duration                                 : 2 h 0 min
  97. Bit rate mode                            : Constant
  98. Bit rate                                 : 224 kb/s
  99. Channel(s)                               : 2 channels
  100. Channel layout                           : L R
  101. Sampling rate                            : 48.0 kHz
  102. Frame rate                               : 31.250 FPS (1536 SPF)
  103. Bit depth                                : 16 bits
  104. Compression mode                         : Lossy
  105. Stream size                              : 192 MiB (1%)
  106. Title                                    : White.Christmas.1954.1080p.BluRay.REMUX.AVC.DTS-HD.MA.5.1-FGT
  107. Language                                 : Spanish
  108. Service kind                             : Complete Main
  109. Default                                  : No
  110. Forced                                   : No

  111. Audio #5
  112. ID                                       : 6
  113. Format                                   : AC-3
  114. Format/Info                              : Audio Coding 3
  115. Commercial name                          : Dolby Digital
  116. Codec ID                                 : A_AC3
  117. Duration                                 : 2 h 0 min
  118. Bit rate mode                            : Constant
  119. Bit rate                                 : 224 kb/s
  120. Channel(s)                               : 2 channels
  121. Channel layout                           : L R
  122. Sampling rate                            : 48.0 kHz
  123. Frame rate                               : 31.250 FPS (1536 SPF)
  124. Bit depth                                : 16 bits
  125. Compression mode                         : Lossy
  126. Stream size                              : 192 MiB (1%)
  127. Title                                    : White.Christmas.1954.1080p.BluRay.REMUX.AVC.DTS-HD.MA.5.1-FGT
  128. Language                                 : French
  129. Service kind                             : Complete Main
  130. Default                                  : No
  131. Forced                                   : No

  132. Audio #6
  133. ID                                       : 7
  134. Format                                   : AC-3
  135. Format/Info                              : Audio Coding 3
  136. Commercial name                          : Dolby Digital
  137. Codec ID                                 : A_AC3
  138. Duration                                 : 2 h 0 min
  139. Bit rate mode                            : Constant
  140. Bit rate                                 : 224 kb/s
  141. Channel(s)                               : 2 channels
  142. Channel layout                           : L R
  143. Sampling rate                            : 48.0 kHz
  144. Frame rate                               : 31.250 FPS (1536 SPF)
  145. Bit depth                                : 16 bits
  146. Compression mode                         : Lossy
  147. Stream size                              : 192 MiB (1%)
  148. Title                                    : White.Christmas.1954.1080p.BluRay.REMUX.AVC.DTS-HD.MA.5.1-FGT
  149. Language                                 : German
  150. Service kind                             : Complete Main
  151. Default                                  : No
  152. Forced                                   : No

  153. Text #1
  154. ID                                       : 8
  155. Format                                   : PGS
  156. Muxing mode                              : zlib
  157. Codec ID                                 : S_HDMV/PGS
  158. Codec ID/Info                            : Picture based subtitle format used on BDs/HD-DVDs
  159. Duration                                 : 1 h 57 min
  160. Bit rate                                 : 32.9 kb/s
  161. Count of elements                        : 2010
  162. Stream size                              : 27.7 MiB (0%)
  163. Language                                 : English
  164. Default                                  : Yes
  165. Forced                                   : No

  166. Text #2
  167. ID                                       : 9
  168. Format                                   : PGS
  169. Muxing mode                              : zlib
  170. Codec ID                                 : S_HDMV/PGS
  171. Codec ID/Info                            : Picture based subtitle format used on BDs/HD-DVDs
  172. Duration                                 : 1 h 57 min
  173. Bit rate                                 : 19.7 kb/s
  174. Count of elements                        : 2578
  175. Stream size                              : 16.5 MiB (0%)
  176. Language                                 : Japanese
  177. Default                                  : No
  178. Forced                                   : No

  179. Text #3
  180. ID                                       : 10
  181. Format                                   : PGS
  182. Muxing mode                              : zlib
  183. Codec ID                                 : S_HDMV/PGS
  184. Codec ID/Info                            : Picture based subtitle format used on BDs/HD-DVDs
  185. Duration                                 : 1 h 59 min
  186. Bit rate                                 : 33.3 kb/s
  187. Count of elements                        : 2186
  188. Stream size                              : 28.4 MiB (0%)
  189. Language                                 : Italian
  190. Default                                  : No
  191. Forced                                   : No

  192. Text #4
  193. ID                                       : 11
  194. Format                                   : PGS
  195. Muxing mode                              : zlib
  196. Codec ID                                 : S_HDMV/PGS
  197. Codec ID/Info                            : Picture based subtitle format used on BDs/HD-DVDs
  198. Duration                                 : 1 h 58 min
  199. Bit rate                                 : 33.0 kb/s
  200. Count of elements                        : 2428
  201. Stream size                              : 28.0 MiB (0%)
  202. Language                                 : Spanish
  203. Default                                  : No
  204. Forced                                   : No

  205. Text #5
  206. ID                                       : 12
  207. Format                                   : PGS
  208. Muxing mode                              : zlib
  209. Codec ID                                 : S_HDMV/PGS
  210. Codec ID/Info                            : Picture based subtitle format used on BDs/HD-DVDs
  211. Duration                                 : 1 h 58 min
  212. Bit rate                                 : 323 b/s
  213. Count of elements                        : 28
  214. Stream size                              : 280 KiB (0%)
  215. Language                                 : Spanish
  216. Default                                  : No
  217. Forced                                   : No

  218. Text #6
  219. ID                                       : 13
  220. Format                                   : PGS
  221. Muxing mode                              : zlib
  222. Codec ID                                 : S_HDMV/PGS
  223. Codec ID/Info                            : Picture based subtitle format used on BDs/HD-DVDs
  224. Duration                                 : 1 h 58 min
  225. Bit rate                                 : 28.7 kb/s
  226. Count of elements                        : 2128
  227. Stream size                              : 24.4 MiB (0%)
  228. Language                                 : French
  229. Default                                  : No
  230. Forced                                   : No

  231. Text #7
  232. ID                                       : 14
  233. Format                                   : PGS
  234. Muxing mode                              : zlib
  235. Codec ID                                 : S_HDMV/PGS
  236. Codec ID/Info                            : Picture based subtitle format used on BDs/HD-DVDs
  237. Duration                                 : 1 min 19 s
  238. Bit rate                                 : 2 362 b/s
  239. Count of elements                        : 4
  240. Stream size                              : 23.0 KiB (0%)
  241. Language                                 : French
  242. Default                                  : No
  243. Forced                                   : No

  244. Text #8
  245. ID                                       : 15
  246. Format                                   : PGS
  247. Muxing mode                              : zlib
  248. Codec ID                                 : S_HDMV/PGS
  249. Codec ID/Info                            : Picture based subtitle format used on BDs/HD-DVDs
  250. Duration                                 : 1 h 59 min
  251. Bit rate                                 : 45.4 kb/s
  252. Count of elements                        : 2842
  253. Stream size                              : 38.8 MiB (0%)
  254. Language                                 : German
  255. Default                                  : No
  256. Forced                                   : No

  257. Text #9
  258. ID                                       : 16
  259. Format                                   : PGS
  260. Muxing mode                              : zlib
  261. Codec ID                                 : S_HDMV/PGS
  262. Codec ID/Info                            : Picture based subtitle format used on BDs/HD-DVDs
  263. Duration                                 : 1 h 59 min
  264. Bit rate                                 : 10.0 kb/s
  265. Count of elements                        : 742
  266. Stream size                              : 8.55 MiB (0%)
  267. Language                                 : German
  268. Default                                  : No
  269. Forced                                   : No

  270. Text #10
  271. ID                                       : 17
  272. Format                                   : PGS
  273. Muxing mode                              : zlib
  274. Codec ID                                 : S_HDMV/PGS
  275. Codec ID/Info                            : Picture based subtitle format used on BDs/HD-DVDs
  276. Duration                                 : 1 h 57 min
  277. Bit rate                                 : 32.1 kb/s
  278. Count of elements                        : 2196
  279. Stream size                              : 26.9 MiB (0%)
  280. Language                                 : Danish
  281. Default                                  : No
  282. Forced                                   : No

  283. Text #11
  284. ID                                       : 18
  285. Format                                   : PGS
  286. Muxing mode                              : zlib
  287. Codec ID                                 : S_HDMV/PGS
  288. Codec ID/Info                            : Picture based subtitle format used on BDs/HD-DVDs
  289. Duration                                 : 1 h 57 min
  290. Bit rate                                 : 27.8 kb/s
  291. Count of elements                        : 2194
  292. Stream size                              : 23.3 MiB (0%)
  293. Language                                 : Dutch
  294. Default                                  : No
  295. Forced                                   : No

  296. Text #12
  297. ID                                       : 19
  298. Format                                   : PGS
  299. Muxing mode                              : zlib
  300. Codec ID                                 : S_HDMV/PGS
  301. Codec ID/Info                            : Picture based subtitle format used on BDs/HD-DVDs
  302. Duration                                 : 1 h 58 min
  303. Bit rate                                 : 29.8 kb/s
  304. Count of elements                        : 2196
  305. Stream size                              : 25.2 MiB (0%)
  306. Language                                 : Norwegian Nynorsk
  307. Default                                  : No
  308. Forced                                   : No

  309. Text #13
  310. ID                                       : 20
  311. Format                                   : PGS
  312. Muxing mode                              : zlib
  313. Codec ID                                 : S_HDMV/PGS
  314. Codec ID/Info                            : Picture based subtitle format used on BDs/HD-DVDs
  315. Duration                                 : 1 h 57 min
  316. Bit rate                                 : 27.0 kb/s
  317. Count of elements                        : 2194
  318. Stream size                              : 22.7 MiB (0%)
  319. Language                                 : Finnish
  320. Default                                  : No
  321. Forced                                   : No

  322. Text #14
  323. ID                                       : 21
  324. Format                                   : PGS
  325. Muxing mode                              : zlib
  326. Codec ID                                 : S_HDMV/PGS
  327. Codec ID/Info                            : Picture based subtitle format used on BDs/HD-DVDs
  328. Duration                                 : 1 h 58 min
  329. Bit rate                                 : 25.1 kb/s
  330. Count of elements                        : 2196
  331. Stream size                              : 21.2 MiB (0%)
  332. Language                                 : Swedish
  333. Default                                  : No
  334. Forced                                   : No

  335. Menu
  336. 00:00:00.000                             : en:Chapter 01
  337. 00:08:53.324                             : en:Chapter 02
  338. 00:14:18.607                             : en:Chapter 03
  339. 00:26:59.659                             : en:Chapter 04
  340. 00:31:40.440                             : en:Chapter 05
  341. 00:38:24.760                             : en:Chapter 06
  342. 00:44:21.325                             : en:Chapter 07
  343. 00:49:14.826                             : en:Chapter 08
  344. 00:53:46.598                             : en:Chapter 09
  345. 01:00:59.489                             : en:Chapter 10
  346. 01:11:42.715                             : en:Chapter 11
  347. 01:15:37.533                             : en:Chapter 12
  348. 01:21:05.986                             : en:Chapter 13
  349. 01:31:24.228                             : en:Chapter 14
  350. 01:35:21.757                             : en:Chapter 15
  351. 01:41:02.056                             : en:Chapter 16
  352. 01:45:50.761                             : en:Chapter 17
  353. 01:52:13.643                             : en:Chapter 18
  354. 01:55:06.858                             : en:Chapter 19
复制代码

银色圣诞/红色圣诞 White.Christmas.1954.1080p.BluRay.REMUX.AVC.DTS-HD.MA.5.1-FGT 29.42GB-2.png 银色圣诞/红色圣诞 White.Christmas.1954.1080p.BluRay.REMUX.AVC.DTS-HD.MA.5.1-FGT 29.42GB-3.png 银色圣诞/红色圣诞 White.Christmas.1954.1080p.BluRay.REMUX.AVC.DTS-HD.MA.5.1-FGT 29.42GB-4.png







VIP会员免费任意下载本站所有资源!---点击开通
回复

使用道具 举报

懒得打字嘛,点击右侧快捷回复 【右侧内容,后台自定义】
您需要登录后才可以回帖 登录 | 立即注册

本版积分规则

QQ|Archiver|手机版|小黑屋| 中国高清网 |网站地图

GMT+8, 2019-11-22 02:17 , Processed in 0.279853 second(s), 37 queries .

Powered by HDchina X3.4

Copyright 2017-2019©HDchina.All right reserved

返回顶部 联系我们