查看: 34|回复: 0

[剧情片] 薇塔与弗吉尼亚/薇塔和维吉尼亚 Vita.and.Virginia.2018.1080p.BluRay.x264.DTS-HD.MA.5.1-FGT 9.00GB

[复制链接]

 成长值: 3210

级别:资源管理组

注册时间
2017-10-20
最后登录
2019-11-20
听众
1
收听
0
主题
87284
蓝光币
63256 枚
贡献
11643 点
发表于 2019-11-6 22:09:21 | 显示全部楼层 |阅读模式
220801rlxkufyttzzayppy.png

译  名 薇塔与弗吉尼亚 / 薇塔和维吉尼亚
片  名 Vita and Virginia
年  代 2018
产  地 英国
类  别 剧情 / 恋爱 / 同性 / 列传
语  言 英语
上映日期 2018-09-11(多伦多电影节) / 2019-08-23(美国)
IMDb评分  5.4/10 from 403 users
IMDb链接  http://www.imdb.com/title/tt5859882
豆瓣评分 6.8/10 from 71 users
豆瓣链接 https://movie.douban.com/subject/26322767/
片  长 110分钟
导  演 钱亚·波顿 Chanya Button
编  剧 艾琳·阿特金斯 Eileen Atkins / 弗吉尼亚·伍尔芙 Virginia Woolf / Vita Sackville-West
主  演 杰玛·阿特登 Gemma Arterton
       伊丽莎白·德比茨基 Elizabeth Debicki
       伊莎贝拉·罗西里尼 Isabella Rossellini
       鲁伯特·彭利-琼斯 Rupert Penry-Jones
       彼得·费迪南多 Peter Ferdinando


标  签 英国 | 列传 | LGBT | VirginiaWoolf | 英国电影 | 同性 | Les | 恋爱

简  介  

  影片布景设定在20年月的伦敦,剧情将会聚焦伍尔芙与韦斯特之间的情事:弗吉尼亚·史蒂芬1912年嫁给伦纳德·伍尔夫,接着碰见了上流社会人士兼作家薇塔·萨克维尔·韦斯特——哈罗德·尼科尔森的妻子。自1922始,她们开启了一段长达十年的爱情,并保持着性关系,互通了很多情书和日志。在她们的爱情终结以后,两人仍连结着杰出的朋友关系,直到1941年伍尔芙归天。
  这将是Chanya Button自2015年《Burn Burn Burn》以后执导的第二部剧情长片,艾琳·阿特金斯编写剧本,按照她出演的同名舞台剧(1993年初次在伦敦上演,1994年登陆百老汇)改编,还会基于伍尔芙和韦斯特之间的情书停止创作。伊娃·格林和安德丽亚·瑞斯波罗格此前曾打仗过伍尔芙这个脚色,后相继退出。导演称这是一部“新颖刺激,布满缔造力、豪情与性欲”的影片。其他卡司包括伊莎贝拉·罗西里尼、鲁伯特·彭利·琼斯、彼得·费迪南多,9月爱尔兰开拍。
  1. Video
  2. ID                                       : 1
  3. Format                                   : AVC
  4. Format/Info                              : Advanced Video Codec
  5. Format profile                           : High@L4
  6. Format settings                          : CABAC / 4 Ref Frames
  7. Format settings, CABAC                   : Yes
  8. Format settings, Reference frames        : 4 frames
  9. Codec ID                                 : V_MPEG4/ISO/AVC
  10. Duration                                 : 1 h 49 min
  11. Bit rate                                 : 8 450 kb/s
  12. Width                                    : 1 920 pixels
  13. Height                                   : 1 040 pixels
  14. Display aspect ratio                     : 1.85:1
  15. Frame rate mode                          : Constant
  16. Frame rate                               : 24.000 FPS
  17. Color space                              : YUV
  18. Chroma subsampling                       : 4:2:0
  19. Bit depth                                : 8 bits
  20. Scan type                                : Progressive
  21. Bits/(Pixel*Frame)                       : 0.176
  22. Stream size                              : 6.49 GiB (72%)
  23. Title                                    : Vita.and.Virginia.2018.1080p.BluRay.x264.DTS-HD.MA.5.1-FGT
  24. Writing library                          : x264 core 158 r2984 3759fcb
  25. Encoding settings                        : cabac=1 / ref=4 / deblock=1:-3:-3 / analyse=0x3:0x113 / me=umh / subme=8 / psy=1 / psy_rd=1.00:0.00 / mixed_ref=1 / me_range=32 / chroma_me=1 / trellis=2 / 8x8dct=1 / cqm=0 / deadzone=21,11 / fast_pskip=1 / chroma_qp_offset=-2 / threads=32 / lookahead_threads=5 / sliced_threads=0 / nr=0 / decimate=1 / interlaced=0 / bluray_compat=0 / constrained_intra=0 / bframes=3 / b_pyramid=2 / b_adapt=2 / b_bias=0 / direct=3 / weightb=1 / open_gop=0 / weightp=2 / keyint=240 / keyint_min=24 / scenecut=40 / intra_refresh=0 / rc_lookahead=50 / rc=2pass / mbtree=1 / bitrate=8450 / ratetol=1.0 / qcomp=0.60 / qpmin=0 / qpmax=69 / qpstep=4 / cplxblur=20.0 / qblur=0.5 / ip_ratio=1.40 / aq=3:0.80
  26. Default                                  : Yes
  27. Forced                                   : No

  28. Audio
  29. ID                                       : 2
  30. Format                                   : DTS XLL
  31. Format/Info                              : Digital Theater Systems
  32. Commercial name                          : DTS-HD Master Audio
  33. Codec ID                                 : A_DTS
  34. Duration                                 : 1 h 49 min
  35. Bit rate mode                            : Variable
  36. Bit rate                                 : 3 266 kb/s
  37. Channel(s)                               : 6 channels
  38. Channel layout                           : C L R Ls Rs LFE
  39. Sampling rate                            : 48.0 kHz
  40. Frame rate                               : 93.750 FPS (512 SPF)
  41. Bit depth                                : 24 bits
  42. Compression mode                         : Lossless
  43. Stream size                              : 2.51 GiB (28%)
  44. Title                                    : Vita.and.Virginia.2018.1080p.BluRay.x264.DTS-HD.MA.5.1-FGT
  45. Language                                 : English
  46. Default                                  : Yes
  47. Forced                                   : No

  48. Text
  49. ID                                       : 3
  50. Format                                   : UTF-8
  51. Codec ID                                 : S_TEXT/UTF8
  52. Codec ID/Info                            : UTF-8 Plain Text
  53. Duration                                 : 1 h 41 min
  54. Bit rate                                 : 62 b/s
  55. Count of elements                        : 1350
  56. Stream size                              : 46.9 KiB (0%)
  57. Title                                    : English-SRT
  58. Language                                 : English
  59. Default                                  : Yes
  60. Forced                                   : No

  61. Menu
  62. 00:00:00.000                             : en:Chapter 01
  63. 00:06:55.291                             : en:Chapter 02
  64. 00:13:37.291                             : en:Chapter 03
  65. 00:22:19.833                             : en:Chapter 04
  66. 00:34:17.291                             : en:Chapter 05
  67. 00:48:27.208                             : en:Chapter 06
  68. 01:00:35.000                             : en:Chapter 07
  69. 01:05:07.291                             : en:Chapter 08
  70. 01:13:20.791                             : en:Chapter 09
  71. 01:29:31.166                             : en:Chapter 10
  72. 01:36:08.041                             : en:Chapter 11
  73. 01:44:28.541                             : en:Chapter 12
复制代码

薇塔与弗吉尼亚/薇塔和维吉尼亚 Vita.and.Virginia.2018.1080p.BluRay.x264.DTS-HD.MA.5.1-FGT 9.00GB-2.png 薇塔与弗吉尼亚/薇塔和维吉尼亚 Vita.and.Virginia.2018.1080p.BluRay.x264.DTS-HD.MA.5.1-FGT 9.00GB-3.png 薇塔与弗吉尼亚/薇塔和维吉尼亚 Vita.and.Virginia.2018.1080p.BluRay.x264.DTS-HD.MA.5.1-FGT 9.00GB-4.png







VIP会员免费任意下载本站所有资源!---点击开通
回复

使用道具 举报

懒得打字嘛,点击右侧快捷回复 【右侧内容,后台自定义】
您需要登录后才可以回帖 登录 | 立即注册

本版积分规则

QQ|Archiver|手机版|小黑屋| 中国高清网 |网站地图

GMT+8, 2019-11-20 23:04 , Processed in 0.251824 second(s), 37 queries .

Powered by HDchina X3.4

Copyright 2017-2019©HDchina.All right reserved

返回顶部 联系我们