查看: 335|回复: 4

[喜剧片] 夜校 Night.School.2018.THEATRiCAL.720p.BluRay.x264-ViRGO 4.40GB

[复制链接]

 成长值: 5460

级别:资源管理组

注册时间
2017-10-20
最后登录
2020-5-28
听众
1
收听
0
主题
96220
蓝光币
151926 枚
贡献
20598 点
发表于 2019-11-6 22:07:29 | 显示全部楼层 |阅读模式
夜校 Night.School.2018.THEATRiCAL.720p.BluRay.x264-ViRGO 4.40GB-1.png 1 ^$ }) U8 Y) V; l0 x+ Q

* [9 M; R5 ?' c' U$ B( R译  名 夜校$ X# q# L/ {8 D5 E1 j8 V1 I
片  名 Night School) ?# q) f- S$ m; K
年  代 2018
& e! y( V7 L9 v  A产  地 美国# M! {- o( t: }/ V2 y3 ?" ^
类  别 笑剧
6 u8 h+ s7 B, J: B. C语  言 英语
  h0 f1 X5 a3 G( m- G. K' p& `4 O上映日期 2018-09-28(美国)
+ j/ b$ T3 s: t6 d5 g7 CIMDb评分  5.6/10 from 27686 users# b8 O5 _6 S4 m+ j% d1 r
IMDb链接  https://www.imdb.com/title/tt6781982! y% I# h9 m" r, ]8 K' J) e
豆瓣评分 5.7/10 from 1335 users6 Q! t" T* l! F
豆瓣链接 https://movie.douban.com/subject/27059067// r! E' M7 c+ X) ^1 h* P, F& h
片  长 111分钟. l! u' m5 \" o/ x. u% F
导  演 马尔科姆·D·李 Malcolm D. Lee
9 l. T6 b: y$ Q5 Q1 b' g* i- y5 B编  剧 凯文·哈特 Kevin Hart / 哈里·拉奇福德 Harry Ratchford / 乔伊·威尔斯 Joey Wells / 马修·凯拉德 Matthew Kellard / 尼古拉斯·斯托勒 Nicholas Stoller / 约翰·汉博格 John Hamburg% O  ?. n7 E0 h2 P* u
主  演 凯文·哈特 Kevin Hart, P( `" ?9 m) D5 M; X
       蒂凡尼·哈迪斯 Tiffany Haddish$ N$ \2 ?- C; {5 e, u2 @1 O5 F
       玛丽·莱恩·莱杰斯库 Mary Lynn Rajskub
# O* u+ Q& _+ {# h3 f4 g+ M       依冯娜·奥吉 Yvonne Orji* R% X. |% Z( K' }" i0 ]
       罗伯·里格尔 Rob Riggle6 K2 m/ {' h* r! V0 R
       欧文·哈恩 Owen Harn
8 O2 y; Z- {/ w: p/ b: E       本·施瓦茨 Ben Schwartz
9 V  Y' U9 w' Z- Q% n8 o5 |1 A0 W7 `2 r  q

4 ]# B" i# w; p6 x标  签 笑剧 | 美国 | 2018 | 黑人 | 举世 | 剧情 | 好莱坞 | 实在改编
+ t9 x7 r2 S7 I2 r
$ Q( K# A1 e% v& o5 Q简  介  ) S8 Z9 G# W4 }/ k" ]' C

5 K5 f1 B$ d! y, ~  M4 ]  本·施瓦茨(《公园与游憩》《假话屋》)加盟举世笑剧新片《夜校》,凯文·哈特主演,报告一群无事生非者被迫去夜校进修,希望能经过GED考试考试以获得高中文凭。该片由《嗨翻姐妹行》导演马尔科姆·D·李执导,凯文·哈特编写剧本,泰兰·奇拉姆、罗伯·里格尔、Tiffany Haddish、依冯娜·奥吉等也参演,9月亚特兰大开拍,北美2018年9月28日上映。
" i' R; D& y2 `2 x% I- I: K# @# D
  1. Video" O; l* i7 j7 ]6 s
  2. ID                                       : 1* z5 `" d" W8 d+ W- ?
  3. Format                                   : AVC
    4 {) s, B+ W/ F; Z
  4. Format/Info                              : Advanced Video Codec
    6 u/ q: Z% B( g4 M
  5. Format profile                           : High@L4
    ( k. t9 ?! ^5 [5 b. t
  6. Format settings                          : CABAC / 5 Ref Frames! T" K  P# k* ?3 S; V3 G6 W5 e& Q+ p
  7. Format settings, CABAC                   : Yes4 {1 A& y* _% @" x
  8. Format settings, Reference frames        : 5 frames5 ]" b( G1 U0 {5 H7 h$ c
  9. Codec ID                                 : V_MPEG4/ISO/AVC; f: ~7 c/ e# Z. |4 ^0 Y' _  v
  10. Duration                                 : 1 h 51 min6 n/ p4 h3 P4 W9 k+ |6 w! c! ~: k3 z
  11. Bit rate                                 : 4 107 kb/s
    , Z! U+ W' Z' {. n
  12. Width                                    : 1 280 pixels
    * ~7 c- v7 r8 y
  13. Height                                   : 536 pixels
    / m5 m" f1 M( k- i, E
  14. Display aspect ratio                     : 2.40:1
    3 C" o: u, m2 h5 T" a
  15. Frame rate mode                          : Constant( @' P  J6 o* N. C* L  @5 ^  G
  16. Frame rate                               : 23.976 (24000/1001) FPS
    ' p3 f& m, }8 f9 l! s3 z
  17. Color space                              : YUV0 O  @- _, m$ ?4 D3 F
  18. Chroma subsampling                       : 4:2:01 Q7 Q  |' a+ |* P/ S6 Z
  19. Bit depth                                : 8 bits% {! {- n% ?# ]1 T9 K/ K% l+ d: J
  20. Scan type                                : Progressive
    ! a9 m% v. Q5 j! I" J
  21. Bits/(Pixel*Frame)                       : 0.2502 u0 G5 m: Z5 q! m, Z% C8 c$ u0 e
  22. Stream size                              : 3.19 GiB (73%)
    9 C( @" z. G3 ~. z. q; v' X
  23. Writing library                          : x264 core 157 r2970 5493be88 K* f0 d5 C: U% v# o: n' R! M
  24. Encoding settings                        : cabac=1 / ref=5 / deblock=1:0:0 / analyse=0x3:0x113 / me=umh / subme=7 / psy=1 / psy_rd=1.00:0.00 / mixed_ref=1 / me_range=16 / chroma_me=1 / trellis=1 / 8x8dct=1 / cqm=0 / deadzone=21,11 / fast_pskip=0 / chroma_qp_offset=-2 / threads=12 / lookahead_threads=2 / sliced_threads=0 / nr=0 / decimate=1 / interlaced=0 / bluray_compat=0 / constrained_intra=0 / bframes=3 / b_pyramid=2 / b_adapt=1 / b_bias=0 / direct=3 / weightb=1 / open_gop=0 / weightp=2 / keyint=240 / keyint_min=23 / scenecut=40 / intra_refresh=0 / rc_lookahead=50 / rc=2pass / mbtree=1 / bitrate=4107 / ratetol=1.0 / qcomp=0.60 / qpmin=0 / qpmax=69 / qpstep=4 / cplxblur=20.0 / qblur=0.5 / ip_ratio=1.40 / aq=1:1.00
    5 \! O9 H+ w8 ^7 j6 g0 n
  25. Language                                 : English
    0 X' w+ O' F, ~( u4 D
  26. Default                                  : Yes
    1 q' O; N: t2 G! k% {0 ]1 j" c
  27. Forced                                   : No6 e' V! \7 A) H3 M! r0 G- g# k& [5 A8 P/ L
  28. . e6 y( @# {" N+ P  d# ?! {
  29. Audio5 _0 b. z' r5 K& d0 ?' O
  30. ID                                       : 2, x2 w# N, b% b3 U( B2 K
  31. Format                                   : DTS
    9 v( |3 j$ z+ y# I
  32. Format/Info                              : Digital Theater Systems( j0 o% r. L' _2 s
  33. Codec ID                                 : A_DTS
    % ]( C$ N1 Y; A5 I9 [/ P
  34. Duration                                 : 1 h 51 min/ N# C, e4 v+ e6 f% j. s: v
  35. Bit rate mode                            : Constant
    : I" i2 y3 w$ [+ Q  }8 N/ G! m
  36. Bit rate                                 : 1 509 kb/s
      [5 X9 u. D# u5 s& K' g5 a" U
  37. Channel(s)                               : 6 channels
    + E; C6 S+ ~5 t$ c& W0 z
  38. Channel layout                           : C L R Ls Rs LFE
    9 V& ~9 P3 C! {+ N+ o8 \' m9 Y
  39. Sampling rate                            : 48.0 kHz
    4 K+ b. ^5 f$ k3 a  j0 {
  40. Frame rate                               : 93.750 FPS (512 SPF)+ k0 C0 r! d  {4 ^
  41. Bit depth                                : 24 bits
    % w7 `8 f! F0 @8 M
  42. Compression mode                         : Lossy
    ! ~4 g1 v% v7 \( W! ~: \
  43. Stream size                              : 1.17 GiB (27%). U& [4 V* C' V% q
  44. Language                                 : English3 Y2 U) i: n$ c3 M  K6 B
  45. Default                                  : Yes: i" y1 u' q# B0 d' R. p$ ~8 U
  46. Forced                                   : No
    5 x1 F+ o' H; B+ T4 f
  47. % w6 m- D! ^5 u( f( A
  48. Text
    % V% W1 Y. n' C1 W: |) P8 u5 e
  49. ID                                       : 30 O# \4 [/ f3 u0 p- W9 o! X
  50. Format                                   : UTF-8( w& d2 ^" v6 j
  51. Codec ID                                 : S_TEXT/UTF8
    1 \* e+ X) h7 B  T
  52. Codec ID/Info                            : UTF-8 Plain Text
    ( ?, Z2 x. z1 t. E! q! f
  53. Duration                                 : 1 h 46 min
    * Q" |& I8 J1 W( q0 {
  54. Bit rate                                 : 105 b/s
    9 g8 R! }' [( [! y5 C) t: s4 {
  55. Count of elements                        : 25272 [: G2 ~8 G- N  D" c: |% h
  56. Stream size                              : 81.8 KiB (0%). @; M: O& F5 L% x' i. z5 S9 C
  57. Language                                 : English
      l' a  a: L0 e7 ~3 i
  58. Default                                  : No
    - @' v( T: a+ H2 F& r" v3 _- c
  59. Forced                                   : No. U# s4 }/ u* J: n
  60. 5 e1 T: ^, G7 \# N# z
  61. Menu5 R/ J' L" e( W. ~3 q' D+ f% i  N
  62. 00:00:00.000                             : en:00:00:00.000$ r) f* }' O  Z2 ?$ U0 P
  63. 00:04:38.278                             : en:00:04:38.278
    ! F4 y; w- Z9 \' A
  64. 00:08:25.922                             : en:00:08:25.922
    5 C* F& c% P: y- h5 Z: b) N# u
  65. 00:13:20.008                             : en:00:13:20.008  R  `* Q2 K- Q7 C( M9 Q
  66. 00:19:08.856                             : en:00:19:08.856" k5 P, _) \/ v3 R: p: \
  67. 00:26:36.178                             : en:00:26:36.178
    0 `+ a- ]* P3 f% g( @, [. h
  68. 00:29:53.625                             : en:00:29:53.625
    ' ]( J! j' ?3 _6 M$ {% f. z" r
  69. 00:37:48.516                             : en:00:37:48.516
    - _* S* P$ M" g' Y* f$ t8 Y
  70. 00:41:07.173                             : en:00:41:07.173
    " {% }9 e6 l' G2 L/ u6 E) n+ L
  71. 00:46:41.298                             : en:00:46:41.298. W- R1 [* [% e8 _3 O
  72. 00:49:57.828                             : en:00:49:57.828
    % i) ?: v8 ]3 _$ T8 M  [
  73. 00:58:33.468                             : en:00:58:33.468
    # c5 ~* T4 m* _8 _& E
  74. 01:04:17.562                             : en:01:04:17.562: u! M2 P/ w* s$ f
  75. 01:11:00.089                             : en:01:11:00.0898 N7 C+ V: \4 p
  76. 01:15:00.704                             : en:01:15:00.7044 Z7 m: g1 C* K. x& V3 [9 v
  77. 01:21:13.076                             : en:01:21:13.076: r* T5 ^/ Y% N8 e: `% k, q
  78. 01:29:01.086                             : en:01:29:01.086
    4 P% x2 H# ?0 G% Q3 G  g1 S2 c
  79. 01:33:56.297                             : en:01:33:56.297' h) M' p; y1 T7 Q8 {4 Q1 r
  80. 01:39:33.759                             : en:01:39:33.759
    # q+ s# R2 h7 n9 g7 M3 b& `: [0 G
  81. 01:46:36.056                             : en:01:46:36.056
复制代码
* f% I+ K8 T* x- j
夜校 Night.School.2018.THEATRiCAL.720p.BluRay.x264-ViRGO 4.40GB-2.png 0 A- D9 N$ [; w- I$ Q3 q9 L+ i

4 F; H! G* ^5 P0 X  U0 G: `% f& \; U6 F

# y/ b3 G+ i9 y7 x
; ^5 ?! }" Z+ e3 g2 |: e2 D
# ?6 b/ i5 q) F
7 y+ G3 i: [; o  g& A6 @5 Y# X6 w0 H. B2 O+ d
回复

使用道具 举报

级别:荣升主角 Lv.5

注册时间
2019-10-27
最后登录
2020-5-27
听众
1
收听
0
主题
0
蓝光币
507 枚
贡献
0 点
发表于 2019-11-6 22:27:39 | 显示全部楼层
楼主发贴辛苦了,谢谢楼主分享!我觉得中国高清电影网是注册对了!
回复

使用道具 举报

级别:群众演员 Lv.3

注册时间
2019-6-28
最后登录
2020-5-23
听众
5
收听
0
主题
0
蓝光币
229 枚
贡献
0 点
发表于 2019-11-6 22:57:26 | 显示全部楼层
楼主发贴辛苦了,谢谢楼主分享
回复

使用道具 举报

级别:功成名就 Lv.9

注册时间
2019-4-24
最后登录
2020-5-25
听众
14
收听
0
主题
0
蓝光币
539 枚
贡献
0 点
发表于 2019-11-7 08:15:03 | 显示全部楼层
楼主发贴辛苦了,谢谢楼主分享!我觉得中国高清电影网是注册对了!
回复

使用道具 举报

级别:领衔主演 Lv.6

注册时间
2018-2-26
最后登录
2020-5-28
听众
17
收听
0
主题
0
蓝光币
276 枚
贡献
0 点
发表于 2019-11-7 09:36:46 | 显示全部楼层

3 @4 T: M4 O8 l, d7 P这东西我收了!谢谢楼主!中国高清电影网真好!
回复

使用道具 举报

懒得打字嘛,点击右侧快捷回复 【右侧内容,后台自定义】
您需要登录后才可以回帖 登录 | 立即注册

本版积分规则

Archiver|手机版|小黑屋| 中国高清网 ( ICP备17007870号-2 ) |网站地图 

GMT+8, 2020-5-28 12:03 , Processed in 0.158287 second(s), 38 queries .

Powered by HDchina X3.4

Copyright 2017-2019©HDchina.All right reserved

返回顶部 联系我们