查看: 49|回复: 5

[喜剧片] 夜校 Night.School.2018.THEATRiCAL.720p.BluRay.x264-ViRGO 4.40GB

[复制链接]

 成长值: 3160

级别:资源管理组

注册时间
2017-10-20
最后登录
2019-11-11
听众
1
收听
0
主题
86761
蓝光币
61813 枚
贡献
11119 点
发表于 2019-11-6 22:07:29 | 显示全部楼层 |阅读模式
夜校 Night.School.2018.THEATRiCAL.720p.BluRay.x264-ViRGO 4.40GB-1.png
9 s) ]5 V9 C1 C) W( q: ~% r" g. k5 b* x2 {& j/ k
译  名 夜校2 q: q8 h% l, Z9 D0 O) p* A
片  名 Night School; e+ A% J4 c6 [; ^
年  代 2018" V) q5 p6 P4 {9 @* Z& L7 c
产  地 美国
' c: H0 I8 R/ s* C) D类  别 笑剧6 N4 x. y5 r, w, Q5 J- Q7 i( [
语  言 英语" Q7 i$ M; [& D0 b( K
上映日期 2018-09-28(美国): p( l) `- Q6 M9 H3 o' F7 `: }7 D
IMDb评分  5.6/10 from 27686 users
% C; a: p) E0 z! Z& z! ]IMDb链接  https://www.imdb.com/title/tt6781982
" w! v$ d: w8 m: \7 A6 H& P  O豆瓣评分 5.7/10 from 1335 users  X8 s5 F# r/ R6 v/ W2 M
豆瓣链接 https://movie.douban.com/subject/27059067/* @: e9 ?9 q: [8 F
片  长 111分钟$ V4 P. W2 j: f, M! g$ z
导  演 马尔科姆·D·李 Malcolm D. Lee: F3 F' `$ Z  z2 `- J
编  剧 凯文·哈特 Kevin Hart / 哈里·拉奇福德 Harry Ratchford / 乔伊·威尔斯 Joey Wells / 马修·凯拉德 Matthew Kellard / 尼古拉斯·斯托勒 Nicholas Stoller / 约翰·汉博格 John Hamburg( |+ t) D! N, G2 }) U$ f
主  演 凯文·哈特 Kevin Hart7 ~8 p% o) G, s' D) m
       蒂凡尼·哈迪斯 Tiffany Haddish* h7 n0 a- v/ x3 I. ^$ X
       玛丽·莱恩·莱杰斯库 Mary Lynn Rajskub
0 \7 y4 n0 C- J1 r& m, n       依冯娜·奥吉 Yvonne Orji# U' I; o( H2 K1 n$ [: U/ T+ h
       罗伯·里格尔 Rob Riggle
" _- m1 Q& ?8 X* O5 O4 C7 ?7 R       欧文·哈恩 Owen Harn/ N) a4 h, u" p8 Y& f; b
       本·施瓦茨 Ben Schwartz
8 c% H7 n8 @$ o
  M' B1 A/ h. @3 h  N) s% u. ]" b- Y  I6 N" A
标  签 笑剧 | 美国 | 2018 | 黑人 | 举世 | 剧情 | 好莱坞 | 实在改编0 K! t6 w' n, @' n5 S' ]  \
+ h# A' g( V& S
简  介  ' `! W" }9 E0 g9 K) F+ ]/ Q3 ]7 g

) K; p2 h* V, C2 D) h/ T2 l" K  本·施瓦茨(《公园与游憩》《假话屋》)加盟举世笑剧新片《夜校》,凯文·哈特主演,报告一群无事生非者被迫去夜校进修,希望能经过GED考试考试以获得高中文凭。该片由《嗨翻姐妹行》导演马尔科姆·D·李执导,凯文·哈特编写剧本,泰兰·奇拉姆、罗伯·里格尔、Tiffany Haddish、依冯娜·奥吉等也参演,9月亚特兰大开拍,北美2018年9月28日上映。
) Z- M+ `9 ]" [2 f% W9 o5 y
  1. Video
    9 z1 J# v* x7 ?. U! _; g
  2. ID                                       : 1& m/ i, P  N/ O
  3. Format                                   : AVC
    / h, o; P& i! I) M: Z$ O2 E
  4. Format/Info                              : Advanced Video Codec* K! d+ M5 N' |( @/ `
  5. Format profile                           : High@L4! C2 [4 r$ q1 N  n& K) [1 b# P
  6. Format settings                          : CABAC / 5 Ref Frames% q- C! V- S3 U2 B
  7. Format settings, CABAC                   : Yes
    ' b4 B; O( }. w, G
  8. Format settings, Reference frames        : 5 frames
    ( {, ?4 H! H1 F2 U% ], d
  9. Codec ID                                 : V_MPEG4/ISO/AVC
    " W) j5 R! P) f  ?5 u" `: Y
  10. Duration                                 : 1 h 51 min
    9 B- }( X- j* [) W7 X7 C1 k
  11. Bit rate                                 : 4 107 kb/s! S0 S  a( a  U% b+ q3 V4 \
  12. Width                                    : 1 280 pixels
    ! j4 v3 O# y) l4 g3 t8 x) W
  13. Height                                   : 536 pixels
    ( H5 R8 g- Z$ D& Z
  14. Display aspect ratio                     : 2.40:1/ O  P# O# r1 ?3 Y, c8 \, N
  15. Frame rate mode                          : Constant; X( W8 Z/ M, ?
  16. Frame rate                               : 23.976 (24000/1001) FPS
    2 g+ ?$ s/ g+ R6 `( x% E9 [( z
  17. Color space                              : YUV
    - e$ ]5 _: r) A! v, a
  18. Chroma subsampling                       : 4:2:0* z  c- m! x, k2 R% G7 w7 N1 E
  19. Bit depth                                : 8 bits8 v& D* n3 ?: ?' }) S
  20. Scan type                                : Progressive0 _; b9 D" I* a
  21. Bits/(Pixel*Frame)                       : 0.2501 v1 d3 L* U( [' ^# M" @
  22. Stream size                              : 3.19 GiB (73%)6 }- ?, e6 |: r( q" n
  23. Writing library                          : x264 core 157 r2970 5493be8# o8 m# A. A& T" ~
  24. Encoding settings                        : cabac=1 / ref=5 / deblock=1:0:0 / analyse=0x3:0x113 / me=umh / subme=7 / psy=1 / psy_rd=1.00:0.00 / mixed_ref=1 / me_range=16 / chroma_me=1 / trellis=1 / 8x8dct=1 / cqm=0 / deadzone=21,11 / fast_pskip=0 / chroma_qp_offset=-2 / threads=12 / lookahead_threads=2 / sliced_threads=0 / nr=0 / decimate=1 / interlaced=0 / bluray_compat=0 / constrained_intra=0 / bframes=3 / b_pyramid=2 / b_adapt=1 / b_bias=0 / direct=3 / weightb=1 / open_gop=0 / weightp=2 / keyint=240 / keyint_min=23 / scenecut=40 / intra_refresh=0 / rc_lookahead=50 / rc=2pass / mbtree=1 / bitrate=4107 / ratetol=1.0 / qcomp=0.60 / qpmin=0 / qpmax=69 / qpstep=4 / cplxblur=20.0 / qblur=0.5 / ip_ratio=1.40 / aq=1:1.00
    ' S0 E2 X- A/ q8 L3 M
  25. Language                                 : English  |( {$ {- M6 e% T2 b" |
  26. Default                                  : Yes
    9 K6 u/ @6 B; B, K
  27. Forced                                   : No
    ! O2 k9 i/ |# x1 A3 n
  28. 0 F$ a! s! d3 _# v& @$ t
  29. Audio5 }) S5 f2 o1 G
  30. ID                                       : 2
    / L6 M9 b; O3 T& [/ |1 c: B+ f) H' l! O
  31. Format                                   : DTS
      k( f' x( X4 l8 a
  32. Format/Info                              : Digital Theater Systems! D8 N. I+ c, B7 U
  33. Codec ID                                 : A_DTS
    % \% r$ X7 O5 H( n
  34. Duration                                 : 1 h 51 min/ Z: |0 Q% T; H" A8 f/ n5 b( |
  35. Bit rate mode                            : Constant7 l. `1 e* g& K, I9 u) K
  36. Bit rate                                 : 1 509 kb/s: L. M/ d  {4 f: S
  37. Channel(s)                               : 6 channels
    $ O* `% Y( P- R! N# H7 F
  38. Channel layout                           : C L R Ls Rs LFE
    + [3 m3 Y$ ?" L' J2 }/ w7 g
  39. Sampling rate                            : 48.0 kHz
    . e9 u" z: f2 S: i6 l+ X6 q- \
  40. Frame rate                               : 93.750 FPS (512 SPF)
    2 i( V( ~1 k3 }& X- t7 I( P8 F' J: s3 h
  41. Bit depth                                : 24 bits: f3 n$ B- B4 e
  42. Compression mode                         : Lossy) N! o& v# T# T5 R- M3 _4 n
  43. Stream size                              : 1.17 GiB (27%)( f4 V" w( `, G) y4 b
  44. Language                                 : English0 C  C( i& i5 a: j, f* V7 Y
  45. Default                                  : Yes
    ; R" r& z3 e. N# l# Q- i# S
  46. Forced                                   : No
    2 j( `) e2 F0 ^! m7 I9 b
  47. : V; a9 s; ]& L) K6 v
  48. Text. w% ^* c  G7 C( A" g
  49. ID                                       : 3
    ) V: V, w; V8 ^6 F* M# e
  50. Format                                   : UTF-84 c* n) m0 u/ \0 r' H( u$ t
  51. Codec ID                                 : S_TEXT/UTF8$ ^+ [" k$ b" Q$ `: [! l' ]6 o7 p% A4 X
  52. Codec ID/Info                            : UTF-8 Plain Text
    2 _  j/ U1 k$ B8 M6 ]' D6 a: b
  53. Duration                                 : 1 h 46 min, L: J- n# [5 Z! W
  54. Bit rate                                 : 105 b/s% }- {5 B- z7 u, g7 k& r( s2 r# _3 H
  55. Count of elements                        : 25270 w5 w+ |2 G( }; W: n/ T
  56. Stream size                              : 81.8 KiB (0%)9 `2 b( z/ O6 f$ G0 i
  57. Language                                 : English
    # S: w. P. `3 F- g3 K$ a/ @
  58. Default                                  : No: J  i! m1 H* b1 Z
  59. Forced                                   : No
    $ \7 M3 ~. F+ F. q3 h
  60. 2 W( B0 m8 }) F! a
  61. Menu% \+ i- t" _: ?" Z+ d$ r0 {
  62. 00:00:00.000                             : en:00:00:00.000
    7 R+ M0 `" r) }/ p1 @
  63. 00:04:38.278                             : en:00:04:38.278
    1 x. O4 t. d2 c2 x
  64. 00:08:25.922                             : en:00:08:25.9227 m* ?, w) }* h! T
  65. 00:13:20.008                             : en:00:13:20.008
    ) S5 t6 J1 d2 l% h" Y. s- {
  66. 00:19:08.856                             : en:00:19:08.856
    ; o/ D8 n' P/ w5 c* ?0 N2 P5 ^
  67. 00:26:36.178                             : en:00:26:36.178
    * `1 F$ L4 `7 K* `) C9 M8 E9 v
  68. 00:29:53.625                             : en:00:29:53.625" V# N/ F4 R1 M% G
  69. 00:37:48.516                             : en:00:37:48.516- A0 E) Y& ?9 ~4 [+ K
  70. 00:41:07.173                             : en:00:41:07.173, W  W2 E4 Y1 ^4 V$ U. s8 s" m
  71. 00:46:41.298                             : en:00:46:41.298
      m) L7 R# L8 U/ v
  72. 00:49:57.828                             : en:00:49:57.828; G: f  V( ^2 a# t4 Q9 V# H
  73. 00:58:33.468                             : en:00:58:33.468; u# g3 q1 O0 S1 }
  74. 01:04:17.562                             : en:01:04:17.5627 X" y5 E$ p/ V/ c
  75. 01:11:00.089                             : en:01:11:00.089
    5 Y6 j" k2 K" ~
  76. 01:15:00.704                             : en:01:15:00.704
    ' V0 Y/ z& v3 t2 P' E& }6 ~
  77. 01:21:13.076                             : en:01:21:13.076
    ( `: i% X' _1 Y0 e# ?7 {0 D
  78. 01:29:01.086                             : en:01:29:01.086! z5 X. ]" Q2 N5 X/ W
  79. 01:33:56.297                             : en:01:33:56.297
    " H. m6 O# v" D+ e
  80. 01:39:33.759                             : en:01:39:33.759
    $ s: n, {+ `: r* i
  81. 01:46:36.056                             : en:01:46:36.056
复制代码
: C( z; i( U) w% ]
夜校 Night.School.2018.THEATRiCAL.720p.BluRay.x264-ViRGO 4.40GB-2.png
4 G7 G( ?+ K+ K9 j* _1 r# D0 `/ s9 x% ]* r+ ~
3 ~; w0 G7 ?5 ?& i6 p3 J; s

& C8 C1 [( C: u5 x' \* C' Q$ K
; x, T& F. I2 b; U# j6 a5 A# w" ?( ]

) C0 d0 C; R7 e7 e0 H) W7 `: `" \' C* o% z0 q
VIP会员免费任意下载本站所有资源!---点击开通
回复

使用道具 举报

级别:普通观众 Lv.2

注册时间
2019-10-27
最后登录
2019-11-14
听众
0
收听
0
主题
0
蓝光币
21 枚
贡献
0 点
发表于 2019-11-6 22:27:39 | 显示全部楼层
楼主发贴辛苦了,谢谢楼主分享!我觉得中国高清电影网是注册对了!
VIP会员免费任意下载本站所有资源!---点击开通
回复

使用道具 举报

级别:普通观众 Lv.2

注册时间
2019-6-28
最后登录
2019-11-14
听众
4
收听
0
主题
0
蓝光币
18 枚
贡献
0 点
发表于 2019-11-6 22:57:26 | 显示全部楼层
楼主发贴辛苦了,谢谢楼主分享
VIP会员免费任意下载本站所有资源!---点击开通
回复

使用道具 举报

级别:一举成名 Lv.7

注册时间
2019-4-24
最后登录
2019-11-14
听众
13
收听
0
主题
0
蓝光币
194 枚
贡献
0 点
发表于 2019-11-7 08:15:03 | 显示全部楼层
楼主发贴辛苦了,谢谢楼主分享!我觉得中国高清电影网是注册对了!
VIP会员免费任意下载本站所有资源!---点击开通
回复

使用道具 举报

级别:荣升主角 Lv.5

注册时间
2018-2-26
最后登录
2019-11-14
听众
15
收听
0
主题
0
蓝光币
276 枚
贡献
0 点
发表于 2019-11-7 09:36:46 | 显示全部楼层

" N* D6 b7 H( X, q这东西我收了!谢谢楼主!中国高清电影网真好!
VIP会员免费任意下载本站所有资源!---点击开通
回复

使用道具 举报

级别:群众演员 Lv.3

注册时间
2018-1-26
最后登录
2019-11-15
听众
3
收听
0
主题
0
蓝光币
3 枚
贡献
0 点
发表于 前天 20:28 | 显示全部楼层
██████在-线-看-片bxxp7.c o m 】██████5 B* L6 `8 D9 E! u
2 b# L8 z  q8 i! c
██████在-线-看-片
bxxp7.c o m 】██████4 h' v5 e* J7 B3 N: P( B
0 {5 [7 a" ?! v; P5 f0 i( ?
██████在-线-看-片
bxxp7.c o m 】██████+ [" a9 u9 V6 ]9 e& U) Y

, ~* _! A9 g2 G, E7 f- n██████在-线-看-片
bxxp7.c o m 】██████$ A" d# c/ `+ E
6 }; i! B- H. z) ]! l  R
██████在-线-看-片
bxxp7.c o m 】██████
7 F) r9 j# I. c" u& X0 x# i7 b1 {' o( l: X/ N7 p' Q$ A9 k: T  }( l/ q$ V
██████在-线-看-片
bxxp7.c o m 】██████
6 t" z5 E& v0 _5 e+ w' C  b; f; f: W; O3 Y
██████在-线-看-片
bxxp7.c o m 】██████
VIP会员免费任意下载本站所有资源!---点击开通
回复

使用道具 举报

懒得打字嘛,点击右侧快捷回复 【右侧内容,后台自定义】
您需要登录后才可以回帖 登录 | 立即注册

本版积分规则

QQ|Archiver|手机版|小黑屋| 中国高清网 |网站地图 

GMT+8, 2019-11-15 07:45 , Processed in 0.263358 second(s), 37 queries .

Powered by HDchina X3.4

Copyright 2017-2019©HDchina.All right reserved

返回顶部 联系我们