查看: 59|回复: 1

[动作片] 传话的人/刺客戰 Message.Man.2018.1080p.BluRay.x264.DTS-FGT 7.75GB

[复制链接]

 成长值: 3160

级别:资源管理组

注册时间
2017-10-20
最后登录
2019-11-11
听众
1
收听
0
主题
86761
蓝光币
61825 枚
贡献
11119 点
发表于 2019-11-6 22:06:40 | 显示全部楼层 |阅读模式
传话的人/刺客戰 Message.Man.2018.1080p.BluRay.x264.DTS-FGT 7.75GB-1.png

译  名 传话的人 / 刺客戰(台) / 线人 / 消息人 / 信息人
片  名 Message Man
年  代 2018
产  地 印度尼西亚
类  别 行动 / 惊悚 / 犯罪
语  言 英语
上映日期 2018-02-19(澳大利亚)
IMDb评分  6.8/10 from 2124 users
IMDb链接  https://www.imdb.com/title/tt2787302
豆瓣评分 5.2/10 from 114 users
豆瓣链接 https://movie.douban.com/subject/27184937/
导  演 Corey Pearson
编  剧 Corey Pearson
主  演 Verdi Solaiman
       Paul O'Brien
       Aji Santosa


标  签 行动 | 印尼 | 暴力 | 印度尼西亚 | 犯罪 | 电影 | 2018 | 印尼电影

简  介  

  一個退休的刺客要進行任務中最後的瘋狂殺戮,以便彌補自己過去的殘暴,並讓工作回歸正途。他有什麼目标與計畫?他已無處可逃 即將在這場戰役中周全開戰!!
  1. Video
  2. ID                                       : 1
  3. Format                                   : AVC
  4. Format/Info                              : Advanced Video Codec
  5. Format profile                           : High@L4
  6. Format settings                          : CABAC / 4 Ref Frames
  7. Format settings, CABAC                   : Yes
  8. Format settings, Reference frames        : 4 frames
  9. Codec ID                                 : V_MPEG4/ISO/AVC
  10. Duration                                 : 1 h 30 min
  11. Bit rate                                 : 11.5 Mb/s
  12. Width                                    : 1 920 pixels
  13. Height                                   : 804 pixels
  14. Display aspect ratio                     : 2.40:1
  15. Frame rate mode                          : Constant
  16. Frame rate                               : 24.000 FPS
  17. Color space                              : YUV
  18. Chroma subsampling                       : 4:2:0
  19. Bit depth                                : 8 bits
  20. Scan type                                : Progressive
  21. Bits/(Pixel*Frame)                       : 0.310
  22. Stream size                              : 7.26 GiB (94%)
  23. Title                                    : Message.Man.2018.1080p.BluRay.x264.DTS-FGT
  24. Writing library                          : x264 core 148 r2795M aaa9aa8
  25. Encoding settings                        : cabac=1 / ref=4 / deblock=1:-2:-2 / analyse=0x3:0x113 / me=umh / subme=9 / psy=1 / psy_rd=1.00:0.15 / mixed_ref=1 / me_range=16 / chroma_me=1 / trellis=2 / 8x8dct=1 / cqm=0 / deadzone=21,11 / fast_pskip=1 / chroma_qp_offset=-3 / threads=72 / lookahead_threads=3 / sliced_threads=0 / nr=0 / decimate=1 / interlaced=0 / bluray_compat=0 / constrained_intra=0 / bframes=3 / b_pyramid=2 / b_adapt=1 / b_bias=0 / direct=3 / weightb=1 / open_gop=0 / weightp=2 / keyint=250 / keyint_min=25 / scenecut=40 / intra_refresh=0 / rc_lookahead=50 / rc=2pass / mbtree=1 / bitrate=11500 / ratetol=1.0 / qcomp=0.60 / qpmin=0 / qpmax=69 / qpstep=4 / cplxblur=20.0 / qblur=0.5 / vbv_maxrate=31250 / vbv_bufsize=31250 / nal_hrd=none / filler=0 / ip_ratio=1.40 / aq=1:1.00
  26. Language                                 : English
  27. Default                                  : Yes
  28. Forced                                   : No

  29. Audio
  30. ID                                       : 2
  31. Format                                   : DTS
  32. Format/Info                              : Digital Theater Systems
  33. Codec ID                                 : A_DTS
  34. Duration                                 : 1 h 30 min
  35. Bit rate mode                            : Constant
  36. Bit rate                                 : 768 kb/s
  37. Channel(s)                               : 6 channels
  38. Channel layout                           : C L R Ls Rs LFE
  39. Sampling rate                            : 48.0 kHz
  40. Frame rate                               : 93.750 FPS (512 SPF)
  41. Bit depth                                : 16 bits
  42. Compression mode                         : Lossy
  43. Stream size                              : 497 MiB (6%)
  44. Title                                    : Message.Man.2018.1080p.BluRay.x264.DTS-FGT
  45. Language                                 : English
  46. Default                                  : Yes
  47. Forced                                   : No

  48. Text #1
  49. ID                                       : 3
  50. Format                                   : UTF-8
  51. Codec ID                                 : S_TEXT/UTF8
  52. Codec ID/Info                            : UTF-8 Plain Text
  53. Duration                                 : 1 h 22 min
  54. Bit rate                                 : 5 b/s
  55. Count of elements                        : 132
  56. Stream size                              : 3.12 KiB (0%)
  57. Title                                    : FORCED
  58. Language                                 : English
  59. Default                                  : Yes
  60. Forced                                   : Yes

  61. Text #2
  62. ID                                       : 4
  63. Format                                   : UTF-8
  64. Codec ID                                 : S_TEXT/UTF8
  65. Codec ID/Info                            : UTF-8 Plain Text
  66. Duration                                 : 1 h 23 min
  67. Bit rate                                 : 21 b/s
  68. Count of elements                        : 607
  69. Stream size                              : 13.4 KiB (0%)
  70. Language                                 : English
  71. Default                                  : No
  72. Forced                                   : No

  73. Menu
  74. 00:00:00.000                             : en:Chapter 01
  75. 00:03:10.375                             : en:Chapter 02
  76. 00:14:35.458                             : en:Chapter 03
  77. 00:25:13.375                             : en:Chapter 04
  78. 00:36:17.500                             : en:Chapter 05
  79. 00:42:26.250                             : en:Chapter 06
  80. 00:47:28.833                             : en:Chapter 07
  81. 00:53:59.125                             : en:Chapter 08
  82. 00:59:51.708                             : en:Chapter 09
  83. 01:10:17.166                             : en:Chapter 10
  84. 01:17:01.583                             : en:Chapter 11
  85. 01:26:25.583                             : en:Chapter 12
复制代码

传话的人/刺客戰 Message.Man.2018.1080p.BluRay.x264.DTS-FGT 7.75GB-2.png 传话的人/刺客戰 Message.Man.2018.1080p.BluRay.x264.DTS-FGT 7.75GB-3.png 传话的人/刺客戰 Message.Man.2018.1080p.BluRay.x264.DTS-FGT 7.75GB-4.png







VIP会员免费任意下载本站所有资源!---点击开通
回复

使用道具 举报

级别:普通观众 Lv.2

注册时间
2019-10-27
最后登录
2019-11-14
听众
0
收听
0
主题
0
蓝光币
21 枚
贡献
0 点
发表于 2019-11-6 22:27:08 | 显示全部楼层
楼主发贴辛苦了,谢谢楼主分享!我觉得中国高清电影网是注册对了!
VIP会员免费任意下载本站所有资源!---点击开通
回复

使用道具 举报

懒得打字嘛,点击右侧快捷回复 【右侧内容,后台自定义】
您需要登录后才可以回帖 登录 | 立即注册

本版积分规则

QQ|Archiver|手机版|小黑屋| 中国高清网 |网站地图 

GMT+8, 2019-11-15 08:46 , Processed in 0.225715 second(s), 37 queries .

Powered by HDchina X3.4

Copyright 2017-2019©HDchina.All right reserved

返回顶部 联系我们