查看: 54|回复: 1

[剧情片] 如果·爱 Perhaps.Love.2005.1080p.BluRay.x264-Japhson 7.95GB

[复制链接]

 成长值: 3160

级别:资源管理组

注册时间
2017-10-20
最后登录
2019-11-11
听众
1
收听
0
主题
86761
蓝光币
61857 枚
贡献
11119 点
发表于 2019-11-6 22:05:01 | 显示全部楼层 |阅读模式
假如·爱 Perhaps.Love.2005.1080p.BluRay.x264-Japhson 7.95GB-1.png

译  名 Perhaps Love
片  名 假如·爱
年  代 2005
产  地 中国大陆 / 中国香港 / 马来西亚
类  别 剧情 / 恋爱 / 歌舞
语  言 汉语普通话 / 粤语 / 英语
上映日期 2005-12-01(中国大陆)
IMDb评分  6.8/10 from 2246 users
IMDb链接  https://www.imdb.com/title/tt0454914
豆瓣评分 7.7/10 from 182996 users
豆瓣链接 https://movie.douban.com/subject/1418070/
片  长 108分钟
导  演 陈可辛 Peter Chan / 赵良骏 Samson Chiu
编  剧 杜国威 Raymond To / 林爱华 Oi Wah Lam / 阮世生 James Yuen / 方晴 Ching 'Jessica' Fong
主  演 金城武 Takeshi Kaneshiro
       周迅 Xun Zhou
       张学友 Jacky Cheung
       池珍熙 Jin-hee Ji
       曾志伟 Eric Tsang
       吴君如 Sandra Ng
       薛之谦 Zhiqian Xue
       尚铁龙 Tielong Shang
       陈铜民 Tongmin Chen


标  签 恋爱 | 香港 | 歌舞 | 文艺 | 2005 | 音乐剧 | 音乐 | 剧情

简  介  

  想演戏的孙纳(周迅 饰)与想导戏的林见东(金城武 饰)初碰见时,两人都正处于生活与奇迹的低谷,在相互激励和扶携中,他们渐渐有了配合的可以看见希望的未来,但是孙纳更想把现在的能够抓得手,狠心与林见东分了手,跟了可以给她戏的导演聂文(张学友 饰),成为大家羡慕的大明星。
  天意弄人,十年后孙纳与也做了演员的林见东由于一部合拍戏又重遇。虽尽力压服自己忘记曩昔,却欺骗不了自己的心,孙纳堕入两难中。而更戏剧的是,孙纳、林见东和聂文要同演一出剧情与他们之间情恨纠葛惊人类似的戏。

获奖情况  

  第43届台北金马影展(2006)
  金马奖 最好剧情片(提名)
  金马奖 最好导演 陈可辛
  金马奖 最好女配角 周迅
  金马奖 最好摄影 鲍德熹
  金马奖 最好美术设想(提名) 黄炳耀 / 奚仲文
  金马奖 最好外型设想(提名) 奚仲文
  金马奖 最好行动设想(提名) 董玮 / 法拉·可汗
  金马奖 最好原创配乐(提名) 高世章 / 金培达
  金马奖 最好原创歌曲 高世章 / 金城武 / 周迅
  金马奖 最好剪辑(提名) 李栋全 / 邝志良
  金马奖 最好音效(提名) 曾景祥
  金马奖 最好视觉结果(提名) 何兆麟
  观众票选最好影片(提名)

  第25届香港电影金像奖(2006)
  最好电影(提名)
  最好导演(提名) 陈可辛
  最好编剧(提名) 杜国威 / 林爱华
  最好女配角 周迅
  最好摄影 鲍德熹
  最好剪接(提名) 李栋全 / 邝志良
  最好美术指导 黄炳耀 / 奚仲文
  最好打扮外型设想 奚仲文 / 吴里璐
  最好原创电影音乐 高世章 / 金培达
  最好原创电影歌曲 金培达 / 张学友
  最好声响结果(提名) 曾景祥

  第8届中国长春电影节(2006)
  金鹿奖 最好导演 陈可辛
  金鹿奖 最好男配角(提名) 金城武
  金鹿奖 最好女配角(提名) 周迅
  金鹿奖 最好摄影 鲍德熹
  金鹿奖 最受大众接待影片奖

  第6届华语电影传媒大奖(2006)
  最好电影(提名)
  最好女配角(提名) 周迅

  第13届北京大门生电影节(2006)
  最好观赏结果奖
  最受大门生接待导演 陈可辛
  最受大门生接待女演员 周迅
  1. Video
  2. ID                                       : 1
  3. Format                                   : AVC
  4. Format/Info                              : Advanced Video Codec
  5. Format profile                           : High@L4
  6. Format settings                          : CABAC / 4 Ref Frames
  7. Format settings, CABAC                   : Yes
  8. Format settings, Reference frames        : 4 frames
  9. Codec ID                                 : V_MPEG4/ISO/AVC
  10. Duration                                 : 1 h 48 min
  11. Bit rate                                 : 8 985 kb/s
  12. Width                                    : 1 920 pixels
  13. Height                                   : 1 080 pixels
  14. Display aspect ratio                     : 16:9
  15. Frame rate mode                          : Constant
  16. Frame rate                               : 24.000 FPS
  17. Color space                              : YUV
  18. Chroma subsampling                       : 4:2:0
  19. Bit depth                                : 8 bits
  20. Scan type                                : Progressive
  21. Bits/(Pixel*Frame)                       : 0.181
  22. Stream size                              : 6.65 GiB (84%)
  23. Writing library                          : x264 core 65 r1055M 2b8d6a6
  24. Encoding settings                        : cabac=1 / ref=4 / deblock=1:-1:-1 / analyse=0x3:0x113 / me=umh / subme=7 / psy_rd=1.0:0.0 / mixed_ref=1 / me_range=16 / chroma_me=1 / trellis=2 / 8x8dct=1 / cqm=0 / deadzone=21,11 / chroma_qp_offset=-2 / threads=6 / nr=0 / decimate=1 / mbaff=0 / bframes=3 / b_pyramid=0 / b_adapt=2 / b_bias=0 / direct=3 / wpredb=1 / keyint=250 / keyint_min=25 / scenecut=40(pre) / rc=2pass / bitrate=8985 / ratetol=1.0 / qcomp=0.60 / qpmin=10 / qpmax=51 / qpstep=4 / cplxblur=20.0 / qblur=0.5 / vbv_maxrate=50000 / vbv_bufsize=50000 / ip_ratio=1.40 / pb_ratio=1.30 / aq=1:1.00
  25. Language                                 : Chinese
  26. Default                                  : Yes
  27. Forced                                   : No

  28. Audio
  29. ID                                       : 2
  30. Format                                   : DTS 96/24
  31. Format/Info                              : Digital Theater Systems
  32. Commercial name                          : DTS 96/24
  33. Codec ID                                 : A_DTS
  34. Duration                                 : 1 h 48 min
  35. Bit rate mode                            : Constant
  36. Bit rate                                 : 1 509 kb/s
  37. Channel(s)                               : 6 channels
  38. Channel layout                           : C L R Ls Rs LFE
  39. Sampling rate                            : 96.0 kHz
  40. Frame rate                               : 187.500 FPS (512 SPF)
  41. Bit depth                                : 24 bits
  42. Compression mode                         : Lossy
  43. Stream size                              : 1.14 GiB (14%)
  44. Language                                 : Chinese
  45. Default                                  : Yes
  46. Forced                                   : No

  47. Text
  48. ID                                       : 3
  49. Format                                   : UTF-8
  50. Codec ID                                 : S_TEXT/UTF8
  51. Codec ID/Info                            : UTF-8 Plain Text
  52. Language                                 : English
  53. Default                                  : Yes
  54. Forced                                   : No
复制代码

假如·爱 Perhaps.Love.2005.1080p.BluRay.x264-Japhson 7.95GB-2.png 假如·爱 Perhaps.Love.2005.1080p.BluRay.x264-Japhson 7.95GB-3.png 假如·爱 Perhaps.Love.2005.1080p.BluRay.x264-Japhson 7.95GB-4.png







VIP会员免费任意下载本站所有资源!---点击开通
回复

使用道具 举报

级别:普通观众 Lv.2

注册时间
2019-8-21
最后登录
2019-11-14
听众
0
收听
0
主题
0
蓝光币
11 枚
贡献
0 点
发表于 2019-11-7 19:16:38 | 显示全部楼层

这东西我收了!谢谢楼主!中国高清电影网真好!
VIP会员免费任意下载本站所有资源!---点击开通
回复

使用道具 举报

懒得打字嘛,点击右侧快捷回复 【右侧内容,后台自定义】
您需要登录后才可以回帖 登录 | 立即注册

本版积分规则

QQ|Archiver|手机版|小黑屋| 中国高清网 |网站地图 

GMT+8, 2019-11-15 10:23 , Processed in 0.255138 second(s), 37 queries .

Powered by HDchina X3.4

Copyright 2017-2019©HDchina.All right reserved

返回顶部 联系我们