查看: 39|回复: 2

[动画片] 彼德与狼 Peter.and.the.Wolf.2006.FESTiVAL.1080p.Bluray.x264-TiMELORDS 2.18GB

[复制链接]

 成长值: 3230

级别:资源管理组

注册时间
2017-10-20
最后登录
2019-11-21
听众
1
收听
0
主题
87390
蓝光币
63614 枚
贡献
11749 点
发表于 2019-11-6 22:03:22 | 显示全部楼层 |阅读模式
彼德与狼 Peter.and.the.Wolf.2006.FESTiVAL.1080p.Bluray.x264-TiMELORDS 2.18GB-1.png

译  名 彼德与狼 / Peter and the Wolf / Piotrus i wilk / Sergei Prokofiev's Peter & the Wolf / 彼得与狼
片  名 Peter & the Wolf
年  代 2006
产  地 英国 / 波兰 / 挪威 / 墨西哥
类  别 剧情 / 动画 / 短片
语  言 无对白
上映日期 2006-09-23(英国)
IMDb评分  7.6/10 from 3668 users
IMDb链接  https://www.imdb.com/title/tt0863136
豆瓣评分 8.0/10 from 12757 users
豆瓣链接 https://movie.douban.com/subject/2038174/
片  长 32分钟
导  演 苏西?邓普顿 Suzie Templeton
编  剧 Sergei Prokofiev / 苏西?邓普顿 Suzie Templeton

标  签 动画短片 | 动画 | 短片 | 英国 | 波兰 | 2006 | 音乐 | 动画片

简  介  

  彼得和爷爷生活在乡下,如同惊弓之鸟的爷爷把自己和彼得都关在一个如同军事堡垒的屋子里面,避开乱糟糟的街道,以及街道上地痞大盗。同时警告彼得不准彼获得里面结了冰的湖面上玩,也不准他爬家门前的大橡树。年少布满猎奇心的彼得趁着爷爷熟睡之机,悄悄的跑到了里面结了冰的湖面上玩。不意一匹恶狼途经。凭着机智和勇敢,彼得生擒了这只恶狼。但当他和爷爷把狼带到镇上时,发现人们对狼很是残暴,终极彼得决议把这只狼重新放回到大自然中。
  《彼得与狼》是俄罗斯作曲家普罗柯菲耶夫(Prokofiev)1936年为儿童写的一部交响乐童话,故事里面的人物都是用各类分歧的乐器来饰演的。本片也荣获2008年第80届奥斯卡最好动画短片奖。

获奖情况  

  第80届奥斯卡金像奖(2008)
  最好动画短片 苏西?邓普顿 / 休·韦尔什曼
  1. Video
  2. ID                                       : 1
  3. Format                                   : AVC
  4. Format/Info                              : Advanced Video Codec
  5. Format profile                           : High@L4
  6. Format settings                          : CABAC / 4 Ref Frames
  7. Format settings, CABAC                   : Yes
  8. Format settings, Reference frames        : 4 frames
  9. Codec ID                                 : V_MPEG4/ISO/AVC
  10. Duration                                 : 33 min 47 s
  11. Bit rate                                 : 7 916 kb/s
  12. Width                                    : 1 920 pixels
  13. Height                                   : 1 080 pixels
  14. Display aspect ratio                     : 16:9
  15. Frame rate mode                          : Constant
  16. Frame rate                               : 23.976 FPS
  17. Color space                              : YUV
  18. Chroma subsampling                       : 4:2:0
  19. Bit depth                                : 8 bits
  20. Scan type                                : Progressive
  21. Bits/(Pixel*Frame)                       : 0.159
  22. Stream size                              : 1.78 GiB (82%)
  23. Title                                    : Peter and the Wolf
  24. Writing library                          : x264 core 65 r1080 56e9183
  25. Encoding settings                        : cabac=1 / ref=4 / deblock=1:0:0 / analyse=0x3:0x133 / me=umh / subme=7 / psy_rd=1.0:0.0 / mixed_ref=1 / me_range=16 / chroma_me=1 / trellis=1 / 8x8dct=1 / cqm=0 / deadzone=21,11 / chroma_qp_offset=-2 / threads=6 / nr=0 / decimate=1 / mbaff=0 / bframes=3 / b_pyramid=1 / b_adapt=1 / b_bias=0 / direct=1 / wpredb=1 / keyint=250 / keyint_min=25 / scenecut=40(pre) / rc=2pass / bitrate=7916 / ratetol=1.0 / qcomp=0.60 / qpmin=10 / qpmax=51 / qpstep=4 / cplxblur=20.0 / qblur=0.5 / ip_ratio=1.40 / pb_ratio=1.30 / aq=1:1.00
  26. Default                                  : Yes
  27. Forced                                   : No

  28. Audio
  29. ID                                       : 2
  30. Format                                   : DTS
  31. Format/Info                              : Digital Theater Systems
  32. Codec ID                                 : A_DTS
  33. Duration                                 : 33 min 47 s
  34. Bit rate mode                            : Constant
  35. Bit rate                                 : 1 509 kb/s
  36. Channel(s)                               : 6 channels
  37. Channel layout                           : C L R Ls Rs LFE
  38. Sampling rate                            : 48.0 kHz
  39. Frame rate                               : 93.750 FPS (512 SPF)
  40. Bit depth                                : 24 bits
  41. Compression mode                         : Lossy
  42. Stream size                              : 365 MiB (16%)
  43. Title                                    : DTS
  44. Default                                  : Yes
  45. Forced                                   : No
复制代码

彼德与狼 Peter.and.the.Wolf.2006.FESTiVAL.1080p.Bluray.x264-TiMELORDS 2.18GB-2.png 彼德与狼 Peter.and.the.Wolf.2006.FESTiVAL.1080p.Bluray.x264-TiMELORDS 2.18GB-3.png 彼德与狼 Peter.and.the.Wolf.2006.FESTiVAL.1080p.Bluray.x264-TiMELORDS 2.18GB-4.png







VIP会员免费任意下载本站所有资源!---点击开通
回复

使用道具 举报

级别:普通观众 Lv.2

注册时间
2019-10-5
最后登录
2019-11-13
听众
0
收听
0
主题
0
蓝光币
71 枚
贡献
0 点
发表于 2019-11-7 11:02:36 | 显示全部楼层
非常精彩的一部定格动画短片 完美地再现了童话故事的的精彩 感谢楼主辛苦分享
VIP会员免费任意下载本站所有资源!---点击开通
回复

使用道具 举报

级别:普通观众 Lv.2

注册时间
2019-8-21
最后登录
2019-11-21
听众
0
收听
0
主题
0
蓝光币
19 枚
贡献
0 点
发表于 2019-11-7 19:14:17 | 显示全部楼层

论坛不能没有像楼主这样的人才啊!我会一直支持中国高清电影网
VIP会员免费任意下载本站所有资源!---点击开通
回复

使用道具 举报

懒得打字嘛,点击右侧快捷回复 【右侧内容,后台自定义】
您需要登录后才可以回帖 登录 | 立即注册

本版积分规则

QQ|Archiver|手机版|小黑屋| 中国高清网 |网站地图

GMT+8, 2019-11-22 03:41 , Processed in 0.209545 second(s), 37 queries .

Powered by HDchina X3.4

Copyright 2017-2019©HDchina.All right reserved

返回顶部 联系我们