查看: 43|回复: 0

[喜剧片] 好莱坞交易/交易 The.Deal.2008.1080p.BluRay.x264-SENNA 7.95GB

[复制链接]

 成长值: 3230

级别:资源管理组

注册时间
2017-10-20
最后登录
2019-11-21
听众
1
收听
0
主题
87390
蓝光币
63616 枚
贡献
11749 点
发表于 2019-11-6 22:01:41 | 显示全部楼层 |阅读模式
好莱坞买卖/买卖 The.Deal.2008.1080p.BluRay.x264-SENNA 7.95GB-1.png

译  名 好莱坞买卖 / 买卖
片  名 The Deal
年  代 2008
产  地 美国 / 加拿大
类  别 笑剧
语  言 英语 / 希伯来语
上映日期 2008-01-22
IMDb评分  5.6/10 from 3186 users
IMDb链接  https://www.imdb.com/title/tt0848281
豆瓣评分 5.8/10 from 202 users
豆瓣链接 https://movie.douban.com/subject/1920797/
片  长 100 分钟
导  演 史蒂芬·斯卡特尔 Steven Schachter
编  剧 William H. Macy / 史蒂芬·斯卡特尔 Steven Schachter
主  演 威廉姆·H·梅西 William H. Macy
       梅格·瑞恩 Meg Ryan
       LL Cool J
       埃利奥特·古尔德 Elliott Gould
       杰森·雷特 Jason Ritter
       菲奥娜·格拉斯科特 Fiona Glascott
       John Carson
       大卫·亨特 David Hunt


标  签 我看过的电影 | 我看过的英语电影 | 笑剧 | 美国 | 英语电影 | 我的标签 | Megryan | 美国电影

简  介  

  一个奇迹频频受挫的制片人,终究赞成帮自己的侄子拍摄一部关于19世纪英国政治家本杰明·迪斯雷利的电影。不外他想要获得投资的条件是,必须由一位侄子指定的明星来主演这部电影。成果,在欧洲拍摄现场,明星遭到了绑架,电影也拍不成了。制片人挖空心机,终究想出一个计划去解救明星,以拯救堕入搁浅的电影……
  1. Video
  2. ID                                       : 1
  3. Format                                   : AVC
  4. Format/Info                              : Advanced Video Codec
  5. Format profile                           : High@L4
  6. Format settings                          : CABAC / 4 Ref Frames
  7. Format settings, CABAC                   : Yes
  8. Format settings, Reference frames        : 4 frames
  9. Codec ID                                 : V_MPEG4/ISO/AVC
  10. Duration                                 : 1 h 39 min
  11. Bit rate                                 : 10.9 Mb/s
  12. Width                                    : 1 920 pixels
  13. Height                                   : 1 080 pixels
  14. Display aspect ratio                     : 16:9
  15. Frame rate mode                          : Constant
  16. Frame rate                               : 23.976 FPS
  17. Color space                              : YUV
  18. Chroma subsampling                       : 4:2:0
  19. Bit depth                                : 8 bits
  20. Scan type                                : Progressive
  21. Bits/(Pixel*Frame)                       : 0.220
  22. Stream size                              : 7.48 GiB (94%)
  23. Writing library                          : x264 core 67 r1139M 1024283
  24. Encoding settings                        : cabac=1 / ref=4 / deblock=1:-2:-1 / analyse=0x3:0x133 / me=umh / subme=9 / psy_rd=1.0:0.0 / mixed_ref=1 / me_range=24 / chroma_me=1 / trellis=2 / 8x8dct=1 / cqm=0 / deadzone=21,11 / chroma_qp_offset=-2 / threads=12 / nr=0 / decimate=1 / mbaff=0 / bframes=4 / b_pyramid=1 / b_adapt=2 / b_bias=0 / direct=3 / wpredb=1 / keyint=250 / keyint_min=25 / scenecut=40 / rc=2pass / bitrate=10937 / ratetol=1.0 / qcomp=0.60 / qpmin=10 / qpmax=51 / qpstep=4 / cplxblur=20.0 / qblur=0.5 / ip_ratio=1.40 / pb_ratio=1.30 / aq=1:1.00
  25. Language                                 : English
  26. Default                                  : Yes
  27. Forced                                   : No

  28. Audio
  29. ID                                       : 2
  30. Format                                   : AC-3
  31. Format/Info                              : Audio Coding 3
  32. Commercial name                          : Dolby Digital
  33. Codec ID                                 : A_AC3
  34. Duration                                 : 1 h 39 min
  35. Bit rate mode                            : Constant
  36. Bit rate                                 : 448 kb/s
  37. Channel(s)                               : 6 channels
  38. Channel layout                           : L R C LFE Ls Rs
  39. Sampling rate                            : 48.0 kHz
  40. Frame rate                               : 31.250 FPS (1536 SPF)
  41. Bit depth                                : 16 bits
  42. Compression mode                         : Lossy
  43. Stream size                              : 320 MiB (4%)
  44. Language                                 : English
  45. Service kind                             : Complete Main
  46. Default                                  : Yes
  47. Forced                                   : No

  48. Menu
  49. 00:00:00.000                             : en:00:00:00.000
  50. 00:09:24.564                             : en:00:09:24.564
  51. 00:20:20.428                             : en:00:20:20.428
  52. 00:28:26.371                             : en:00:28:26.371
  53. 00:38:35.939                             : en:00:38:35.939
  54. 00:52:07.791                             : en:00:52:07.791
  55. 01:00:00.222                             : en:01:00:00.222
  56. 01:01:21.136                             : en:01:01:21.136
  57. 01:14:12.281                             : en:01:14:12.281
  58. 01:20:54.266                             : en:01:20:54.266
  59. 01:29:16.768                             : en:01:29:16.768
  60. 01:36:16.980                             : en:01:36:16.980
复制代码

好莱坞买卖/买卖 The.Deal.2008.1080p.BluRay.x264-SENNA 7.95GB-2.png 好莱坞买卖/买卖 The.Deal.2008.1080p.BluRay.x264-SENNA 7.95GB-3.png 好莱坞买卖/买卖 The.Deal.2008.1080p.BluRay.x264-SENNA 7.95GB-4.png







VIP会员免费任意下载本站所有资源!---点击开通
回复

使用道具 举报

懒得打字嘛,点击右侧快捷回复 【右侧内容,后台自定义】
您需要登录后才可以回帖 登录 | 立即注册

本版积分规则

QQ|Archiver|手机版|小黑屋| 中国高清网 |网站地图

GMT+8, 2019-11-22 05:24 , Processed in 0.258049 second(s), 37 queries .

Powered by HDchina X3.4

Copyright 2017-2019©HDchina.All right reserved

返回顶部 联系我们