查看: 9|回复: 0

[纪录片] 极简主义:记录生命中的重要事物 Minimalism.A.Documentary.About.the.Important.Things.2016.1080p.NF.WEBRip.DDP2.0.x264-SiGMA 3.78GB

[复制链接]

 成长值: 3230

级别:资源管理组

注册时间
2017-10-20
最后登录
2019-11-21
听众
1
收听
0
主题
87390
蓝光币
63616 枚
贡献
11749 点
发表于 2019-11-6 21:49:15 | 显示全部楼层 |阅读模式
极简主义:记录生射中的重要事物 Minimalism.A.Documentary.About.the.Important.Things.2016.1080p.NF.WEBRip.DDP2.0.x264-SiGMA 3.78GB-1.png

译  名 极简主义:记录生射中的重要事物
片  名 Minimalism: A Documentary About the Important Things
年  代 2015
产  地 美国
类  别 记载片
语  言 英语
上映日期 2015-09-26(雨舞电影节)
IMDb评分  6.7/10 from 10288 users
IMDb链接  https://www.imdb.com/title/tt3810760
豆瓣评分 6.9/10 from 1306 users
豆瓣链接 https://movie.douban.com/subject/26707099/
片  长 79分钟
导  演 Matt D'Avella
主  演 丹·哈里斯 Dan Harris
       Josh Becker
       Shannon Whitehead
       山姆·哈里斯 Sam Harris
       Rick Hanson


标  签 记载片 | 极简 | 美国 | 生活 | Netflix | 紀錄片 | 哲学 | Documentary

简  介  

  你的生活怎样会更好? MINIMALISM:关于重要事务的记载片,来自风行的简单生活二人组“极简主义者”的一部长篇记载片,经过将观众带到各个阶级的极简主义者的生活中,考查了极简主义的诸多气概。
  1. Video
  2. ID                                       : 1
  3. Format                                   : AVC
  4. Format/Info                              : Advanced Video Codec
  5. Format profile                           : High@L4
  6. Format settings                          : CABAC / 3 Ref Frames
  7. Format settings, CABAC                   : Yes
  8. Format settings, Reference frames        : 3 frames
  9. Codec ID                                 : V_MPEG4/ISO/AVC
  10. Duration                                 : 1 h 18 min
  11. Bit rate mode                            : Variable
  12. Bit rate                                 : 6 810 kb/s
  13. Maximum bit rate                         : 10.2 Mb/s
  14. Width                                    : 1 920 pixels
  15. Height                                   : 1 080 pixels
  16. Display aspect ratio                     : 16:9
  17. Frame rate mode                          : Constant
  18. Frame rate                               : 23.976 (24000/1001) FPS
  19. Color space                              : YUV
  20. Chroma subsampling                       : 4:2:0
  21. Bit depth                                : 8 bits
  22. Scan type                                : Progressive
  23. Bits/(Pixel*Frame)                       : 0.137
  24. Stream size                              : 3.70 GiB (98%)
  25. Writing library                          : x264 core 118
  26. Encoding settings                        : cabac=1 / ref=3 / deblock=1:0:0 / analyse=0x1:0x111 / me=umh / subme=10 / psy=1 / psy_rd=1.00:0.00 / mixed_ref=1 / me_range=24 / chroma_me=1 / trellis=2 / 8x8dct=0 / cqm=0 / deadzone=21,11 / fast_pskip=1 / chroma_qp_offset=-2 / threads=8 / sliced_threads=0 / nr=0 / decimate=1 / interlaced=0 / bluray_compat=0 / constrained_intra=0 / bframes=2 / b_pyramid=0 / b_adapt=2 / b_bias=0 / direct=3 / weightb=1 / open_gop=0 / weightp=2 / keyint=48 / keyint_min=25 / scenecut=0 / intra_refresh=0 / rc_lookahead=0 / rc=2pass / mbtree=1 / bitrate=6810 / ratetol=1.0 / qcomp=0.50 / qpmin=6 / qpmax=51 / qpstep=4 / cplxblur=20.0 / qblur=0.5 / vbv_maxrate=10215 / vbv_bufsize=13620 / nal_hrd=vbr / ip_ratio=1.40 / aq=1:1.00
  27. Default                                  : Yes
  28. Forced                                   : No

  29. Audio
  30. ID                                       : 2
  31. Format                                   : E-AC-3
  32. Format/Info                              : Enhanced AC-3
  33. Commercial name                          : Dolby Digital Plus
  34. Codec ID                                 : A_EAC3
  35. Duration                                 : 1 h 18 min
  36. Bit rate mode                            : Constant
  37. Bit rate                                 : 128 kb/s
  38. Channel(s)                               : 2 channels
  39. Channel layout                           : L R
  40. Sampling rate                            : 48.0 kHz
  41. Frame rate                               : 31.250 FPS (1536 SPF)
  42. Compression mode                         : Lossy
  43. Stream size                              : 71.5 MiB (2%)
  44. Language                                 : English
  45. Service kind                             : Complete Main
  46. Default                                  : Yes
  47. Forced                                   : No

  48. Text #1
  49. ID                                       : 3
  50. Format                                   : UTF-8
  51. Codec ID                                 : S_TEXT/UTF8
  52. Codec ID/Info                            : UTF-8 Plain Text
  53. Duration                                 : 1 h 16 min
  54. Bit rate                                 : 102 b/s
  55. Count of elements                        : 1445
  56. Stream size                              : 57.8 KiB (0%)
  57. Title                                    : SDH
  58. Language                                 : English
  59. Default                                  : No
  60. Forced                                   : No

  61. Text #2
  62. ID                                       : 4
  63. Format                                   : UTF-8
  64. Codec ID                                 : S_TEXT/UTF8
  65. Codec ID/Info                            : UTF-8 Plain Text
  66. Duration                                 : 1 h 17 min
  67. Bit rate                                 : 97 b/s
  68. Count of elements                        : 1298
  69. Stream size                              : 55.7 KiB (0%)
  70. Language                                 : Spanish
  71. Default                                  : No
  72. Forced                                   : No

  73. Text #3
  74. ID                                       : 5
  75. Format                                   : UTF-8
  76. Codec ID                                 : S_TEXT/UTF8
  77. Codec ID/Info                            : UTF-8 Plain Text
  78. Duration                                 : 1 h 17 min
  79. Bit rate                                 : 92 b/s
  80. Count of elements                        : 1243
  81. Stream size                              : 52.0 KiB (0%)
  82. Language                                 : French
  83. Default                                  : No
  84. Forced                                   : No

  85. Text #4
  86. ID                                       : 6
  87. Format                                   : UTF-8
  88. Codec ID                                 : S_TEXT/UTF8
  89. Codec ID/Info                            : UTF-8 Plain Text
  90. Duration                                 : 1 h 17 min
  91. Bit rate                                 : 83 b/s
  92. Count of elements                        : 1301
  93. Stream size                              : 47.6 KiB (0%)
  94. Title                                    : Simplified
  95. Language                                 : Chinese
  96. Default                                  : No
  97. Forced                                   : No

  98. Text #5
  99. ID                                       : 7
  100. Format                                   : UTF-8
  101. Codec ID                                 : S_TEXT/UTF8
  102. Codec ID/Info                            : UTF-8 Plain Text
  103. Duration                                 : 1 h 17 min
  104. Bit rate                                 : 79 b/s
  105. Count of elements                        : 1303
  106. Stream size                              : 45.4 KiB (0%)
  107. Title                                    : Traditional
  108. Language                                 : Chinese
  109. Default                                  : No
  110. Forced                                   : No
复制代码

极简主义:记录生射中的重要事物 Minimalism.A.Documentary.About.the.Important.Things.2016.1080p.NF.WEBRip.DDP2.0.x264-SiGMA 3.78GB-2.png 极简主义:记录生射中的重要事物 Minimalism.A.Documentary.About.the.Important.Things.2016.1080p.NF.WEBRip.DDP2.0.x264-SiGMA 3.78GB-3.png 极简主义:记录生射中的重要事物 Minimalism.A.Documentary.About.the.Important.Things.2016.1080p.NF.WEBRip.DDP2.0.x264-SiGMA 3.78GB-4.png 极简主义:记录生射中的重要事物 Minimalism.A.Documentary.About.the.Important.Things.2016.1080p.NF.WEBRip.DDP2.0.x264-SiGMA 3.78GB-5.png 214747vsxskkcyssvhsxhd.png 极简主义:记录生射中的重要事物 Minimalism.A.Documentary.About.the.Important.Things.2016.1080p.NF.WEBRip.DDP2.0.x264-SiGMA 3.78GB-7.png







VIP会员免费任意下载本站所有资源!---点击开通
回复

使用道具 举报

懒得打字嘛,点击右侧快捷回复 【右侧内容,后台自定义】
您需要登录后才可以回帖 登录 | 立即注册

本版积分规则

QQ|Archiver|手机版|小黑屋| 中国高清网 |网站地图

GMT+8, 2019-11-22 05:36 , Processed in 0.240940 second(s), 37 queries .

Powered by HDchina X3.4

Copyright 2017-2019©HDchina.All right reserved

返回顶部 联系我们