查看: 16|回复: 0

[剧情片] T.N.T.杰克逊 TNT.Jackson.1974.1080p.AMZN.WEBRip.DDP2.0.x264-ABM 7.57GB

[复制链接]

 成长值: 3230

级别:资源管理组

注册时间
2017-10-20
最后登录
2019-11-21
听众
1
收听
0
主题
87390
蓝光币
63614 枚
贡献
11749 点
发表于 2019-11-6 21:46:47 | 显示全部楼层 |阅读模式
T.N.T.杰克逊 TNT.Jackson.1974.1080p.AMZN.WEBRip.DDP2.0.x264-ABM 7.57GB-1.png

译  名 T.N.T.杰克逊
片  名 T.N.T. Jackson
年  代 1974
产  地 美国 / 菲律宾
类  别 剧情 / 行动
语  言 英语 / 菲律宾语 / 塔加路语
上映日期 1975-01-17
IMDb评分  4.7/10 from 875 users
IMDb链接  https://www.imdb.com/title/tt0072245
豆瓣评分 0/10 from 0 users
豆瓣链接 https://movie.douban.com/subject/3135381/
片  长 UK: 68 分钟
导  演 Cirio H. Santiago
编  剧 Ken Metcalfe
主  演 Jeannie Bell
       Stan Shaw
       Pat Anderson
       Ken Metcalfe


标  签 Blaxploitation | 1970s | 菲律宾 | 国外电影 | 行动 | 剧情 | 东南亚-菲律宾 | rapid

简  介  

  暂无相关剧情先容
  1. Video
  2. ID                                       : 1
  3. Format                                   : AVC
  4. Format/Info                              : Advanced Video Codec
  5. Format profile                           : High@L4
  6. Format settings                          : CABAC / 4 Ref Frames
  7. Format settings, CABAC                   : Yes
  8. Format settings, Reference frames        : 4 frames
  9. Codec ID                                 : V_MPEG4/ISO/AVC
  10. Duration                                 : 1 h 11 min
  11. Bit rate                                 : 14.6 Mb/s
  12. Width                                    : 1 920 pixels
  13. Height                                   : 1 080 pixels
  14. Display aspect ratio                     : 16:9
  15. Frame rate mode                          : Constant
  16. Frame rate                               : 23.976 (24000/1001) FPS
  17. Color space                              : YUV
  18. Chroma subsampling                       : 4:2:0
  19. Bit depth                                : 8 bits
  20. Scan type                                : Progressive
  21. Bits/(Pixel*Frame)                       : 0.293
  22. Stream size                              : 7.31 GiB (97%)
  23. Language                                 : English
  24. Default                                  : Yes
  25. Forced                                   : No
  26. Color range                              : Limited
  27. Color primaries                          : BT.709
  28. Transfer characteristics                 : BT.709
  29. Matrix coefficients                      : BT.709

  30. Audio
  31. ID                                       : 2
  32. Format                                   : E-AC-3
  33. Format/Info                              : Enhanced AC-3
  34. Commercial name                          : Dolby Digital Plus
  35. Codec ID                                 : A_EAC3
  36. Duration                                 : 1 h 11 min
  37. Bit rate mode                            : Constant
  38. Bit rate                                 : 224 kb/s
  39. Channel(s)                               : 2 channels
  40. Channel layout                           : L R
  41. Sampling rate                            : 48.0 kHz
  42. Frame rate                               : 31.250 FPS (1536 SPF)
  43. Compression mode                         : Lossy
  44. Stream size                              : 115 MiB (1%)
  45. Language                                 : English
  46. Service kind                             : Complete Main
  47. Default                                  : Yes
  48. Forced                                   : No

  49. Text #1
  50. ID                                       : 3
  51. Format                                   : UTF-8
  52. Codec ID                                 : S_TEXT/UTF8
  53. Codec ID/Info                            : UTF-8 Plain Text
  54. Language                                 : English
  55. Default                                  : No
  56. Forced                                   : No

  57. Text #2
  58. ID                                       : 4
  59. Format                                   : UTF-8
  60. Codec ID                                 : S_TEXT/UTF8
  61. Codec ID/Info                            : UTF-8 Plain Text
  62. Title                                    : SDH
  63. Language                                 : English
  64. Default                                  : No
  65. Forced                                   : No
复制代码

T.N.T.杰克逊 TNT.Jackson.1974.1080p.AMZN.WEBRip.DDP2.0.x264-ABM 7.57GB-2.png 29208058510873381678_medium.png T.N.T.杰克逊 TNT.Jackson.1974.1080p.AMZN.WEBRip.DDP2.0.x264-ABM 7.57GB-4.png







VIP会员免费任意下载本站所有资源!---点击开通
回复

使用道具 举报

懒得打字嘛,点击右侧快捷回复 【右侧内容,后台自定义】
您需要登录后才可以回帖 登录 | 立即注册

本版积分规则

QQ|Archiver|手机版|小黑屋| 中国高清网 |网站地图

GMT+8, 2019-11-22 02:10 , Processed in 0.211695 second(s), 37 queries .

Powered by HDchina X3.4

Copyright 2017-2019©HDchina.All right reserved

返回顶部 联系我们