查看: 121|回复: 1

[剧情片] 千面人 Man.of.a.Thousand.Faces.1957.720p.BluRay.x264-PSYCHD 6.57GB

[复制链接]

 成长值: 4190

级别:资源管理组

注册时间
2017-10-20
最后登录
2020-2-26
听众
1
收听
0
主题
92798
蓝光币
104137 枚
贡献
17160 点
发表于 2019-11-6 21:41:17 | 显示全部楼层 |阅读模式
千面人 Man.of.a.Thousand.Faces.1957.720p.BluRay.x264-PSYCHD 6.57GB-1.png % \- \' X) q  d/ A) |5 Z1 Y# @5 [

4 M2 J- _  l7 G' _* R% l- P$ F译  名 千面人, h+ y2 v8 Z4 N: O3 Q
片  名 Man of a Thousand Faces& I( f: x5 V8 ^$ E; {
年  代 1957
+ N) s4 D! v+ [" m产  地 美国6 Q' x8 \; a, L2 T: X" c  U  w8 Z
类  别 剧情 / 列传
4 p  ^- s* o$ Z! T9 }语  言 美国手语 / 英语1 J8 J6 K: J) S- S. T
上映日期 1957-08-13
6 [. v$ n2 [- F! w7 N  V0 q/ d# U( FIMDb评分  7.2/10 from 2127 users
% V% L+ r5 ^* ~4 TIMDb链接  https://www.imdb.com/title/tt0050681
/ S7 M4 t& e& E豆瓣评分 0/10 from 0 users
. F+ k' C; K: T; o4 G  b豆瓣链接 https://movie.douban.com/subject/1295107/
% m* ^" z9 b6 H' R* F  \6 p2 o片  长 122 分钟
8 d# F6 P) L" w导  演 约瑟夫 佩夫尼 (Joseph Pevney); o9 K. Y1 k) G3 e; j) x3 U
编  剧 Ben Roberts (I) / 伊凡 戈夫 (Ivan Goff) / R. Wright Campbell$ i, ^# i$ G( A, r/ }+ t$ L+ R
主  演 James Cagney, S: f% B1 i/ J  {; h
       Dorothy Malone: K0 Z% I  h2 l' c7 ?8 E! B& _
       Jane Greer: i4 N# N3 s" `
       Robert Evans
% h. j7 |8 P! p* W/ [# N. ?+ c
) Q( Y  f# n7 h, {9 j! E3 j1 D
8 A- d( q# Y' X: j: q1 B标  签 美国 | James_Cagney | 美国电影 | 1950s | 约瑟夫·佩夫尼 | 列传 | JamesCagney | 詹姆斯·卡格尼% H" E8 x* |& x* h' }& H4 l
) x! D: _9 r4 B, \3 t3 m& L* }' i" _
简  介  
! m7 S( r: Y4 `, T) `: E, d
! @- Y+ C# E7 f4 Q( J4 F: p7 @  詹姆斯.卡格尼主演的默片期间“千面人”演员 朗.钱尼 的列传片。
3 }2 Q% ^" @2 G# s  v" Y2 B
0 d3 q2 g9 _6 B获奖情况  $ e4 S, F  v& f$ H  K+ q7 C$ }/ P
- g; t4 o/ [% R  `, L# w
  第30届奥斯卡金像奖(1958)
5 O2 @: z$ a9 h' G* N) c. A2 P" h) s  最好原创剧本(提名) 伊万·戈夫 / R·赖特·坎贝尔 / Ralph Wheelwright / 本·罗伯茨8 J+ H; `+ U4 o5 ?
  1. Video5 L- J7 h# `' a+ t+ R# W# f
  2. ID                                       : 1
    4 L3 F1 F& W9 z, F! g
  3. Format                                   : AVC
    1 T: G: o; F' Y0 u
  4. Format/Info                              : Advanced Video Codec* H0 w1 s, l2 J. v' ?+ v% S" @
  5. Format profile                           : High@L4
    " S# Q1 k& M* I# G$ q9 R  n" Z7 v5 Y
  6. Format settings                          : CABAC / 5 Ref Frames4 I0 L- m: M( d& A6 r, ?
  7. Format settings, CABAC                   : Yes5 v- K5 u9 a3 [- Q7 N
  8. Format settings, Reference frames        : 5 frames  J+ z" }" o! ]( n
  9. Codec ID                                 : V_MPEG4/ISO/AVC/ f* g- E0 t0 e+ S6 X2 ]
  10. Duration                                 : 2 h 1 min
    4 _" e1 o& j5 T  J- ^2 ]
  11. Bit rate                                 : 6 939 kb/s" n  P0 B" R4 u9 q/ K+ D8 f
  12. Width                                    : 1 280 pixels3 ~; C) e& }* C7 @/ _$ {
  13. Height                                   : 544 pixels# R. D$ t1 }2 Y  ^& Q
  14. Display aspect ratio                     : 2.35:1, Q2 _( L6 B5 Y' r, b$ c, _( I- w
  15. Frame rate mode                          : Constant
    : @) I4 K1 w$ X+ K1 y8 f
  16. Frame rate                               : 23.976 (24000/1001) FPS
    - m( ?( b! b1 c/ R' A
  17. Color space                              : YUV
    ! q' X4 ^( }4 e. W
  18. Chroma subsampling                       : 4:2:02 O; G( h4 J& {
  19. Bit depth                                : 8 bits" X+ U( H, n3 q5 a* i" o
  20. Scan type                                : Progressive
    % c6 P- b) M$ Y0 U+ A
  21. Bits/(Pixel*Frame)                       : 0.416
    9 F8 m& N' a  J* n# I9 ^+ K+ ^
  22. Stream size                              : 5.78 GiB (88%)) r  H; ]5 c% e: t# g
  23. Writing library                          : x264 core 158 r2984 3759fcb  x2 i0 z. e- U. {. q' o
  24. Encoding settings                        : cabac=1 / ref=5 / deblock=1:-3:-3 / analyse=0x3:0x113 / me=umh / subme=8 / psy=1 / psy_rd=1.10:0.00 / mixed_ref=1 / me_range=24 / chroma_me=1 / trellis=2 / 8x8dct=1 / cqm=0 / deadzone=21,11 / fast_pskip=1 / chroma_qp_offset=-2 / threads=17 / lookahead_threads=2 / sliced_threads=0 / nr=0 / decimate=1 / interlaced=0 / bluray_compat=0 / constrained_intra=0 / bframes=3 / b_pyramid=2 / b_adapt=2 / b_bias=0 / direct=3 / weightb=1 / open_gop=0 / weightp=2 / keyint=240 / keyint_min=24 / scenecut=40 / intra_refresh=0 / rc_lookahead=50 / rc=2pass / mbtree=1 / bitrate=6939 / ratetol=1.0 / qcomp=0.60 / qpmin=0 / qpmax=69 / qpstep=4 / cplxblur=20.0 / qblur=0.5 / ip_ratio=1.40 / aq=3:0.65% H1 p" d9 B8 r  d$ `) |" g
  25. Default                                  : Yes5 w! I6 D2 X% K2 V9 [% t1 j5 y
  26. Forced                                   : No
    ! d3 a3 g7 e  Q% Z
  27. Statistics Tags Issue                    : no_variable_data 1970-01-01 00:00:00 / no_variable_data 2010-02-22 21:41:29" k' J/ N5 p; _
  28. FromStats_BitRate                        : 6939042
    , B& s, {: ]8 C% k' Q
  29. FromStats_Duration                       : 02:01:49.177000000) G. m5 s0 Q; K/ }4 O9 z
  30. FromStats_FrameCount                     : 175245# k3 R) i# i1 m! z8 w$ S6 _7 p
  31. FromStats_StreamSize                     : 63398357871 e6 {- \/ D4 x3 _& m# E% E% J8 P
  32. / C' Y/ `; s* D6 W# \
  33. Audio3 C, U1 N, D! N( K# }
  34. ID                                       : 2* X; H9 S7 z1 H) ]3 |
  35. Format                                   : DTS
    , `* m' q4 \  G2 x, m8 v0 P
  36. Format/Info                              : Digital Theater Systems$ e6 m# g6 u; U6 @; `
  37. Codec ID                                 : A_DTS
    " L+ n3 _8 U/ Z$ n% ]  {
  38. Duration                                 : 2 h 1 min
    ( r4 @; I7 }2 I
  39. Bit rate mode                            : Constant
    & X) g6 l6 o' S& q! R  J
  40. Bit rate                                 : 768 kb/s
    0 h  ^  t1 j# M2 }# g9 }# j# j/ x
  41. Channel(s)                               : 1 channel
    % _& [5 l5 \6 d% y. W
  42. Channel layout                           : C# w) q; p( e( A4 ]
  43. Sampling rate                            : 48.0 kHz
    - c' I: Z. O! _
  44. Frame rate                               : 93.750 FPS (512 SPF)3 x( g8 h% R( v: }. I
  45. Bit depth                                : 24 bits
    $ o, h% Y# m: {8 T
  46. Compression mode                         : Lossy
    + _1 m/ h- c4 l3 |1 q
  47. Stream size                              : 669 MiB (10%)
    3 ^8 U9 O: X0 q6 }% \# g
  48. Language                                 : English1 L3 I! o  B: f/ H
  49. Default                                  : Yes! h3 a0 E7 l( m
  50. Forced                                   : No
    - G3 P. D: `9 Z& [  `
  51. Statistics Tags Issue                    : no_variable_data 1970-01-01 00:00:00 / no_variable_data 2010-02-22 21:41:29
    . d" w+ Y; g# }: ]% x9 k7 o1 J. B5 w
  52. FromStats_BitRate                        : 768000
    ' ?6 J' l/ x0 y+ X- X2 Z: O
  53. FromStats_Duration                       : 02:01:48.128000000
    2 k4 W$ F3 B; W4 j: O1 M# m
  54. FromStats_FrameCount                     : 685137
    ) K" ?, Y5 `% Z# o6 ?  ]
  55. FromStats_StreamSize                     : 701580288
    ! J: z# Q! f& T

  56. / f6 ^" d9 {3 D5 i/ p1 u0 X
  57. Text #1
    . O8 _- [0 ^& x: M5 O
  58. ID                                       : 3
    & ^3 q8 z* W4 F" n, J; H0 T8 E& \
  59. Format                                   : UTF-8
    ) J$ |* d: `0 O
  60. Codec ID                                 : S_TEXT/UTF8, f# E8 C$ L, \! F8 B: Y5 V& ^
  61. Codec ID/Info                            : UTF-8 Plain Text0 G& W) t' l# `, F" c: a$ t
  62. Language                                 : English
    + C* T% [+ _+ `
  63. Default                                  : No9 J* q3 N) e3 I5 x4 f
  64. Forced                                   : No5 K, X7 |# l' W7 g
  65. Statistics Tags Issue                    : no_variable_data 1970-01-01 00:00:00 / no_variable_data 2010-02-22 21:41:29
    % h/ l; x1 @$ B/ {8 H
  66. FromStats_BitRate                        : 58
    8 t- }. W: E) V9 L
  67. FromStats_Duration                       : 01:59:26.3260000003 p4 p7 E0 ?2 H6 E
  68. FromStats_FrameCount                     : 1377, y) B& w, Z4 W, C+ O% L
  69. FromStats_StreamSize                     : 525333 n/ b8 s& Q5 r/ o: z
  70. # M1 L3 e, g8 ^$ p- g0 ]& \
  71. Text #2
    , n" M9 \( |( g- X
  72. ID                                       : 45 z: A8 M- J/ w. q! I
  73. Format                                   : UTF-8* ^% e( R6 a; L! Z( @
  74. Codec ID                                 : S_TEXT/UTF8
    $ \* y- ]6 e2 L+ M  }: v& f4 v
  75. Codec ID/Info                            : UTF-8 Plain Text
    3 r( B2 O; I; ?, d5 S5 n
  76. Title                                    : SDH
    " x- }4 `, |6 C# M# r! H
  77. Language                                 : English# e- O3 z0 Z9 s& i& W
  78. Default                                  : No
    ' y* V! N( W- U# s
  79. Forced                                   : No
    3 M" n5 g- C& _8 m
  80. Statistics Tags Issue                    : no_variable_data 1970-01-01 00:00:00 / no_variable_data 2010-02-22 21:41:292 N+ `  A& G# u
  81. FromStats_BitRate                        : 61
    " I0 }% c5 t/ ?; `' ?' ?
  82. FromStats_Duration                       : 01:59:26.3260000003 U# F1 d: @' R  ?: p* ^* Y# G
  83. FromStats_FrameCount                     : 1476+ h. @6 ^7 s8 z' Q* G$ Q' O
  84. FromStats_StreamSize                     : 54800' M5 {( ~) j5 x: m& c0 W3 i

  85. ' E* x+ `' R9 T6 N: M% r1 X
  86. Menu' l8 j' ?% x" A- c, _
  87. 00:00:00.000                             : en:Chapter 01! H- d8 Y+ ]) r7 t
  88. 00:11:52.086                             : en:Chapter 02. v1 F1 Q. R8 _* |& ?1 L( q7 |
  89. 00:23:07.886                             : en:Chapter 03
    3 A" p  P7 y+ ~" s9 ^) `* ?+ t
  90. 00:32:03.338                             : en:Chapter 04
    8 ]& Y1 d8 J9 [! e" K" u8 E& T
  91. 00:41:14.138                             : en:Chapter 05! R( h2 u7 e6 G4 p- `  P
  92. 00:50:10.883                             : en:Chapter 06
    4 G5 P5 a1 R$ \& s9 U6 k
  93. 01:01:03.827                             : en:Chapter 07( o  E0 ?2 z. r& K* R; B
  94. 01:14:11.864                             : en:Chapter 08" {' {% g' y& c  H3 g# o
  95. 01:22:42.916                             : en:Chapter 09
    8 O3 |) Z, m3 E& B) w: G$ e
  96. 01:33:13.338                             : en:Chapter 10
      K+ J, W* S2 i" t' }2 D
  97. 01:43:38.796                             : en:Chapter 11$ |0 c" d' Y/ W. k/ t; z  y
  98. 01:52:10.057                             : en:Chapter 12
复制代码

2 N: D6 \4 O7 j1 j+ b+ Y) _- I7 k 千面人 Man.of.a.Thousand.Faces.1957.720p.BluRay.x264-PSYCHD 6.57GB-2.png , e" ~: k6 |' }! [& L$ }

5 _/ v7 `4 ~9 u! b5 a( l4 E7 d2 J* A9 F) D, m& L
  B% G% |* E# x0 @. [
. ^) X7 C, R# P' z) h9 [
7 w2 O9 {2 u. o7 @3 ?/ }0 T

$ J1 F. |0 a# a( [7 h) _: t' v+ x2 R% ?: F  U7 J5 f
回复

使用道具 举报

级别:一线明星 Lv.8

注册时间
2019-4-24
最后登录
2020-2-25
听众
14
收听
0
主题
0
蓝光币
343 枚
贡献
0 点
发表于 2019-11-7 08:15:39 | 显示全部楼层
楼主发贴辛苦了,谢谢楼主分享!我觉得中国高清电影网是注册对了!
回复

使用道具 举报

懒得打字嘛,点击右侧快捷回复 【右侧内容,后台自定义】
您需要登录后才可以回帖 登录 | 立即注册

本版积分规则

Archiver|手机版|小黑屋| 中国高清网 |网站地图

GMT+8, 2020-2-26 00:15 , Processed in 0.173457 second(s), 37 queries .

Powered by HDchina X3.4

Copyright 2017-2019©HDchina.All right reserved

返回顶部 联系我们