查看: 27|回复: 1

[剧情片] 千面人 Man.of.a.Thousand.Faces.1957.720p.BluRay.x264-PSYCHD 6.57GB

[复制链接]

 成长值: 3140

级别:资源管理组

注册时间
2017-10-20
最后登录
2019-11-11
听众
1
收听
0
主题
86761
蓝光币
61615 枚
贡献
11119 点
发表于 7 天前 | 显示全部楼层 |阅读模式
千面人 Man.of.a.Thousand.Faces.1957.720p.BluRay.x264-PSYCHD 6.57GB-1.png & S0 D& w/ M, O" O2 o* [
1 `! K# l( m1 O1 l/ Q! T2 _: Z
译  名 千面人) R5 }4 V. U( }$ F$ b: d- c& t
片  名 Man of a Thousand Faces9 H8 [8 W) H2 b) M
年  代 1957
7 T8 N* H& t6 D产  地 美国0 @: s2 p+ f# m! }1 y
类  别 剧情 / 列传
! {" Q6 S2 c; T3 m语  言 美国手语 / 英语* c6 P3 }, w. p% R1 [! k& g& z
上映日期 1957-08-13
- B" M! d0 Z) F, k# w4 WIMDb评分  7.2/10 from 2127 users
2 ^6 F( B: c; u/ J# ?) J$ qIMDb链接  https://www.imdb.com/title/tt0050681
7 Z' Z& }8 {5 H) L5 f豆瓣评分 0/10 from 0 users+ v# c# _9 n# V: y' N' F" q/ {; f
豆瓣链接 https://movie.douban.com/subject/1295107/
. t5 c6 `3 s+ C+ d8 D- q片  长 122 分钟
/ F. v2 B" ~, p9 J导  演 约瑟夫 佩夫尼 (Joseph Pevney)
% `1 y3 c) P& ^: |+ v编  剧 Ben Roberts (I) / 伊凡 戈夫 (Ivan Goff) / R. Wright Campbell
. y; _1 ~1 z1 K' }) F$ w主  演 James Cagney
- U6 _3 w4 Z% h+ ~/ s       Dorothy Malone
1 g- s& \4 ?2 `       Jane Greer
/ I6 D3 L/ p0 p/ x       Robert Evans9 m5 G9 X  f; M' I, P

* G4 x& A! P( a* I# {# n8 s, K' h6 r
标  签 美国 | James_Cagney | 美国电影 | 1950s | 约瑟夫·佩夫尼 | 列传 | JamesCagney | 詹姆斯·卡格尼
3 c% V( M) _- k! y5 G2 Z" \7 G
; z+ b* b6 x  n' g# g3 K; m简  介  / [" k0 E- V) l4 I, Z

" q0 X' P0 L2 q  ?2 _  詹姆斯.卡格尼主演的默片期间“千面人”演员 朗.钱尼 的列传片。: N) J: E' N0 W4 S# o
- l5 ]: a  v2 f# _( h
获奖情况  ! c. w( g. F; D0 c" w
% k4 ^: j  h7 `7 S
  第30届奥斯卡金像奖(1958)3 `& v& L- J. w5 r0 u3 n
  最好原创剧本(提名) 伊万·戈夫 / R·赖特·坎贝尔 / Ralph Wheelwright / 本·罗伯茨" p  B& U- i/ m/ f3 u
  1. Video
    8 X" E' |' k+ {/ R8 O1 K+ u
  2. ID                                       : 14 q3 Q& k7 Q! ?8 c
  3. Format                                   : AVC6 y* u7 m' g  k5 {! N9 @
  4. Format/Info                              : Advanced Video Codec
    , \" A/ W0 B) r7 R) B
  5. Format profile                           : High@L4( W) b+ b' t5 }0 h
  6. Format settings                          : CABAC / 5 Ref Frames
    . {& |; S7 ~) X5 [5 l  d. a
  7. Format settings, CABAC                   : Yes: u4 N  v- Z2 L7 @
  8. Format settings, Reference frames        : 5 frames
    5 @- q0 S8 P6 r) y5 i) q# s
  9. Codec ID                                 : V_MPEG4/ISO/AVC
    - g3 ?8 j/ F0 G1 V( l+ E
  10. Duration                                 : 2 h 1 min
    . E1 g. r6 D; V3 x# f& ^
  11. Bit rate                                 : 6 939 kb/s3 `9 Z6 I7 z! K% A; o/ K
  12. Width                                    : 1 280 pixels
    # ^0 G5 J6 j- y! B
  13. Height                                   : 544 pixels  c! x4 ^2 K. W4 Y$ o7 w2 ~3 H7 d
  14. Display aspect ratio                     : 2.35:1- h7 z7 `0 a$ X. q
  15. Frame rate mode                          : Constant$ \' D/ @8 C7 P& b: T
  16. Frame rate                               : 23.976 (24000/1001) FPS! M+ T. p9 P( g! H& F4 N; V
  17. Color space                              : YUV7 T* Y& G" a7 L% Q, b- Y& X
  18. Chroma subsampling                       : 4:2:0
    3 O( x) J0 X, f
  19. Bit depth                                : 8 bits8 C' Z+ N* O6 \: z- S
  20. Scan type                                : Progressive
    ' t( k' `- x+ e3 d& e% r. t- A
  21. Bits/(Pixel*Frame)                       : 0.416
    & R0 j1 D. y' j" `; |6 |8 }4 `
  22. Stream size                              : 5.78 GiB (88%)
    : d+ [- G( \. u& r" P/ m# X; q
  23. Writing library                          : x264 core 158 r2984 3759fcb9 T7 C# t8 M; W
  24. Encoding settings                        : cabac=1 / ref=5 / deblock=1:-3:-3 / analyse=0x3:0x113 / me=umh / subme=8 / psy=1 / psy_rd=1.10:0.00 / mixed_ref=1 / me_range=24 / chroma_me=1 / trellis=2 / 8x8dct=1 / cqm=0 / deadzone=21,11 / fast_pskip=1 / chroma_qp_offset=-2 / threads=17 / lookahead_threads=2 / sliced_threads=0 / nr=0 / decimate=1 / interlaced=0 / bluray_compat=0 / constrained_intra=0 / bframes=3 / b_pyramid=2 / b_adapt=2 / b_bias=0 / direct=3 / weightb=1 / open_gop=0 / weightp=2 / keyint=240 / keyint_min=24 / scenecut=40 / intra_refresh=0 / rc_lookahead=50 / rc=2pass / mbtree=1 / bitrate=6939 / ratetol=1.0 / qcomp=0.60 / qpmin=0 / qpmax=69 / qpstep=4 / cplxblur=20.0 / qblur=0.5 / ip_ratio=1.40 / aq=3:0.657 O7 g9 `2 I% V) [" m6 _1 {( p
  25. Default                                  : Yes3 \4 c7 K" S6 U# L
  26. Forced                                   : No
    # y; g8 h) F, d
  27. Statistics Tags Issue                    : no_variable_data 1970-01-01 00:00:00 / no_variable_data 2010-02-22 21:41:29) l. L% Q( D' k, A/ e0 W2 x8 P
  28. FromStats_BitRate                        : 6939042
    5 Z5 r: _& F: q3 a' E
  29. FromStats_Duration                       : 02:01:49.177000000% [0 Z* X  c2 U# |6 b
  30. FromStats_FrameCount                     : 175245! F" ^  h, D  {* i7 e/ a
  31. FromStats_StreamSize                     : 63398357871 {' I" \. D2 s8 B7 U) t+ Q3 o/ R) R

  32. $ c& o/ _: e% f, m7 N3 I' S
  33. Audio
    ( T5 h/ S5 ~$ S- J0 f6 @7 t
  34. ID                                       : 2) h& d2 b* N0 B. J; b
  35. Format                                   : DTS0 ]5 w$ t  Y4 V; `
  36. Format/Info                              : Digital Theater Systems/ R% s& j+ [! v" `& n, I
  37. Codec ID                                 : A_DTS
    & v# ^+ Q; c2 A# H
  38. Duration                                 : 2 h 1 min. g' N  X$ ~, r4 ?; u# P" T
  39. Bit rate mode                            : Constant
    7 ]+ S, i1 M0 W. A
  40. Bit rate                                 : 768 kb/s
    ( z5 ~& ^9 C& Y- x$ }
  41. Channel(s)                               : 1 channel
    ' I6 I/ G9 C+ A% W6 ^0 K
  42. Channel layout                           : C! X. B& v2 w+ I& S, R
  43. Sampling rate                            : 48.0 kHz
    / e! L) n$ W+ ?6 n
  44. Frame rate                               : 93.750 FPS (512 SPF)
    ) }  Y2 o2 O) L; o: A
  45. Bit depth                                : 24 bits- z7 h! O+ b7 K) `
  46. Compression mode                         : Lossy! f9 Q& H6 l8 d6 }) K
  47. Stream size                              : 669 MiB (10%)5 P4 J# W% A; b# h4 A6 |% l
  48. Language                                 : English
    7 a* l9 ?) s2 i2 J
  49. Default                                  : Yes
    0 ]( x- C: ^0 Y/ H$ ^
  50. Forced                                   : No% X; y8 r* M1 ~5 K  ~  E% H+ |9 N
  51. Statistics Tags Issue                    : no_variable_data 1970-01-01 00:00:00 / no_variable_data 2010-02-22 21:41:29
    $ I6 {0 b' [0 H& U7 A6 M
  52. FromStats_BitRate                        : 7680000 p7 [! B- `* J  M/ x" B
  53. FromStats_Duration                       : 02:01:48.1280000006 h/ |1 `$ ]! m
  54. FromStats_FrameCount                     : 685137
    2 \- b2 \  `1 _; ~1 i6 k
  55. FromStats_StreamSize                     : 701580288/ p$ l% |! n! D2 K; D

  56. + j9 w+ v+ H- [' _  ?' Q
  57. Text #1
    * P* O  a/ R+ ^& f* ^4 O
  58. ID                                       : 33 E. t$ u3 {; z, K
  59. Format                                   : UTF-8
    1 |1 @# D8 S3 K0 A
  60. Codec ID                                 : S_TEXT/UTF8
    . T2 R6 j! b; H
  61. Codec ID/Info                            : UTF-8 Plain Text; a# S, ~6 S( ]( @: d6 K# K8 v
  62. Language                                 : English
    . K3 a+ e. o) G  E9 C& l
  63. Default                                  : No% J# e. Q  Q2 Q
  64. Forced                                   : No" p, [2 T5 g$ Z+ o* o
  65. Statistics Tags Issue                    : no_variable_data 1970-01-01 00:00:00 / no_variable_data 2010-02-22 21:41:29
    ( i7 Y9 H0 B/ _* Q; {
  66. FromStats_BitRate                        : 58; A: B$ \% Y, }$ a7 m2 U& u# P$ E; Z6 j
  67. FromStats_Duration                       : 01:59:26.326000000
    . \7 ?6 x4 l& R1 _- @" M
  68. FromStats_FrameCount                     : 13777 Y" N& x' O+ w$ m7 N. K, ]
  69. FromStats_StreamSize                     : 52533( h5 _8 o$ W- E8 g+ L
  70. . b4 o' U8 t# T- T* z
  71. Text #2) g# \+ @  v/ E* C3 c- G2 Y
  72. ID                                       : 43 m$ ^+ F, v% b: i2 |. m$ N
  73. Format                                   : UTF-8
    ) L: e* ]' m7 ?* M1 z* B: C
  74. Codec ID                                 : S_TEXT/UTF8" v0 y' J0 a, |  w: C) ^- l
  75. Codec ID/Info                            : UTF-8 Plain Text% y0 R, h( f  q6 P/ h& y- q
  76. Title                                    : SDH9 s6 ?! i8 t. ?0 J* F3 I  f
  77. Language                                 : English  F" a0 t* X* ~* |* @- G5 @
  78. Default                                  : No
    * o: C1 Y7 _: r1 r. @+ z1 D
  79. Forced                                   : No
    - ^$ j0 d9 b5 v- W# m
  80. Statistics Tags Issue                    : no_variable_data 1970-01-01 00:00:00 / no_variable_data 2010-02-22 21:41:29* ]0 E4 L4 i& p2 e) e, H
  81. FromStats_BitRate                        : 61
    ' r$ K0 i) Q. k! G( T5 D
  82. FromStats_Duration                       : 01:59:26.326000000
    1 M2 f+ ?8 P3 a1 A6 k  d
  83. FromStats_FrameCount                     : 1476
    , x. _3 f+ Q: m; Z, F( R9 C$ J5 M
  84. FromStats_StreamSize                     : 54800$ q: v- R2 @* R

  85. ! t$ H2 w2 i# E/ I6 ]
  86. Menu6 {/ ?- n1 L9 L, Z+ O4 P. j# F
  87. 00:00:00.000                             : en:Chapter 01; z9 Z( ]# g2 ~" I: V  T
  88. 00:11:52.086                             : en:Chapter 02
    : K5 \8 R8 j* i4 `/ {
  89. 00:23:07.886                             : en:Chapter 03
    . d9 I8 }/ |, U# a' @' J3 j2 }
  90. 00:32:03.338                             : en:Chapter 04
    0 c$ B* V/ R) a1 w  e* {0 L: Z
  91. 00:41:14.138                             : en:Chapter 05
    : [  Z& A2 j- n' K
  92. 00:50:10.883                             : en:Chapter 067 W' G: L' J. x8 a" [/ E
  93. 01:01:03.827                             : en:Chapter 07
      H# `! A' R, @" M% B
  94. 01:14:11.864                             : en:Chapter 08
    # {8 X+ R+ M6 ]( m5 O' K
  95. 01:22:42.916                             : en:Chapter 09& u7 w4 c4 g! ^% ^
  96. 01:33:13.338                             : en:Chapter 108 `- _2 O4 U7 ~0 M7 n* F6 R
  97. 01:43:38.796                             : en:Chapter 11
    4 A, T; J9 N, v) G- ]! h+ D/ `
  98. 01:52:10.057                             : en:Chapter 12
复制代码

) Q* I7 q: X2 { 千面人 Man.of.a.Thousand.Faces.1957.720p.BluRay.x264-PSYCHD 6.57GB-2.png
6 \$ P& J- ~+ F1 O  K) \. d5 \
9 s" Q# z" }* s% x, T1 v! y$ D& O5 n* U3 s. Z# Z& s
* i. f5 |0 _+ I5 B' f( R( I, b
% {% ]$ f- ?# P, R

% ~5 s9 `# u# p' I3 c% w! k( m
3 S* d7 t# Q5 ?
, K* e7 o: b; \! B
VIP会员免费任意下载本站所有资源!---点击开通
回复

使用道具 举报

级别:一举成名 Lv.7

注册时间
2019-4-24
最后登录
2019-11-13
听众
13
收听
0
主题
0
蓝光币
194 枚
贡献
0 点
发表于 6 天前 | 显示全部楼层
楼主发贴辛苦了,谢谢楼主分享!我觉得中国高清电影网是注册对了!
VIP会员免费任意下载本站所有资源!---点击开通
回复

使用道具 举报

懒得打字嘛,点击右侧快捷回复 【右侧内容,后台自定义】
您需要登录后才可以回帖 登录 | 立即注册

本版积分规则

QQ|Archiver|手机版|小黑屋| 中国高清网 |网站地图 

GMT+8, 2019-11-13 18:34 , Processed in 27.147034 second(s), 37 queries .

Powered by HDchina X3.4

Copyright 2017-2019©HDchina.All right reserved

返回顶部 联系我们