查看: 29|回复: 0

[剧情片] 千面人 Man.of.a.Thousand.Faces.1957.1080p.BluRay.x264-PSYCHD 12.04GB

[复制链接]

 成长值: 3230

级别:资源管理组

注册时间
2017-10-20
最后登录
2019-11-21
听众
1
收听
0
主题
87390
蓝光币
63616 枚
贡献
11749 点
发表于 2019-11-6 21:40:09 | 显示全部楼层 |阅读模式
213913l8vnzpbp7jkppkc8.png

译  名 千面人
片  名 Man of a Thousand Faces
年  代 1957
产  地 美国
类  别 剧情 / 列传
语  言 美国手语 / 英语
上映日期 1957-08-13
IMDb评分  7.2/10 from 2127 users
IMDb链接  https://www.imdb.com/title/tt0050681
豆瓣评分 0/10 from 0 users
豆瓣链接 https://movie.douban.com/subject/1295107/
片  长 122 分钟
导  演 约瑟夫 佩夫尼 (Joseph Pevney)
编  剧 Ben Roberts (I) / 伊凡 戈夫 (Ivan Goff) / R. Wright Campbell
主  演 James Cagney
       Dorothy Malone
       Jane Greer
       Robert Evans


标  签 美国 | James_Cagney | 美国电影 | 1950s | 约瑟夫·佩夫尼 | 列传 | JamesCagney | 詹姆斯·卡格尼

简  介  

  詹姆斯.卡格尼主演的默片期间“千面人”演员 朗.钱尼 的列传片。

获奖情况  

  第30届奥斯卡金像奖(1958)
  最好原创剧本(提名) 伊万·戈夫 / R·赖特·坎贝尔 / Ralph Wheelwright / 本·罗伯茨
  1. Video
  2. ID                                       : 1
  3. Format                                   : AVC
  4. Format/Info                              : Advanced Video Codec
  5. Format profile                           : High@L4
  6. Format settings                          : CABAC / 5 Ref Frames
  7. Format settings, CABAC                   : Yes
  8. Format settings, Reference frames        : 5 frames
  9. Codec ID                                 : V_MPEG4/ISO/AVC
  10. Duration                                 : 2 h 1 min
  11. Bit rate                                 : 13.4 Mb/s
  12. Width                                    : 1 920 pixels
  13. Height                                   : 824 pixels
  14. Display aspect ratio                     : 2.35:1
  15. Frame rate mode                          : Constant
  16. Frame rate                               : 23.976 (24000/1001) FPS
  17. Color space                              : YUV
  18. Chroma subsampling                       : 4:2:0
  19. Bit depth                                : 8 bits
  20. Scan type                                : Progressive
  21. Bits/(Pixel*Frame)                       : 0.352
  22. Stream size                              : 11.1 GiB (93%)
  23. Writing library                          : x264 core 158 r2984 3759fcb
  24. Encoding settings                        : cabac=1 / ref=5 / deblock=1:-3:-3 / analyse=0x3:0x113 / me=umh / subme=8 / psy=1 / psy_rd=1.10:0.00 / mixed_ref=1 / me_range=32 / chroma_me=1 / trellis=2 / 8x8dct=1 / cqm=0 / deadzone=21,11 / fast_pskip=1 / chroma_qp_offset=-2 / threads=26 / lookahead_threads=4 / sliced_threads=0 / nr=0 / decimate=1 / interlaced=0 / bluray_compat=0 / constrained_intra=0 / bframes=3 / b_pyramid=2 / b_adapt=2 / b_bias=0 / direct=3 / weightb=1 / open_gop=0 / weightp=2 / keyint=240 / keyint_min=24 / scenecut=40 / intra_refresh=0 / rc_lookahead=50 / rc=2pass / mbtree=1 / bitrate=13366 / ratetol=1.0 / qcomp=0.60 / qpmin=0 / qpmax=69 / qpstep=4 / cplxblur=20.0 / qblur=0.5 / ip_ratio=1.40 / aq=3:0.65
  25. Default                                  : Yes
  26. Forced                                   : No
  27. Statistics Tags Issue                    : no_variable_data 1970-01-01 00:00:00 / no_variable_data 2010-02-22 21:41:29
  28. FromStats_BitRate                        : 13366027
  29. FromStats_Duration                       : 02:01:49.177000000
  30. FromStats_FrameCount                     : 175245
  31. FromStats_StreamSize                     : 12211832905

  32. Audio
  33. ID                                       : 2
  34. Format                                   : DTS
  35. Format/Info                              : Digital Theater Systems
  36. Codec ID                                 : A_DTS
  37. Duration                                 : 2 h 1 min
  38. Bit rate mode                            : Constant
  39. Bit rate                                 : 768 kb/s
  40. Channel(s)                               : 1 channel
  41. Channel layout                           : C
  42. Sampling rate                            : 48.0 kHz
  43. Frame rate                               : 93.750 FPS (512 SPF)
  44. Bit depth                                : 24 bits
  45. Compression mode                         : Lossy
  46. Stream size                              : 669 MiB (5%)
  47. Language                                 : English
  48. Default                                  : Yes
  49. Forced                                   : No
  50. Statistics Tags Issue                    : no_variable_data 1970-01-01 00:00:00 / no_variable_data 2010-02-22 21:41:29
  51. FromStats_BitRate                        : 768000
  52. FromStats_Duration                       : 02:01:48.128000000
  53. FromStats_FrameCount                     : 685137
  54. FromStats_StreamSize                     : 701580288

  55. Text #1
  56. ID                                       : 3
  57. Format                                   : UTF-8
  58. Codec ID                                 : S_TEXT/UTF8
  59. Codec ID/Info                            : UTF-8 Plain Text
  60. Language                                 : English
  61. Default                                  : No
  62. Forced                                   : No
  63. Statistics Tags Issue                    : no_variable_data 1970-01-01 00:00:00 / no_variable_data 2010-02-22 21:41:29
  64. FromStats_BitRate                        : 58
  65. FromStats_Duration                       : 01:59:26.326000000
  66. FromStats_FrameCount                     : 1377
  67. FromStats_StreamSize                     : 52533

  68. Text #2
  69. ID                                       : 4
  70. Format                                   : UTF-8
  71. Codec ID                                 : S_TEXT/UTF8
  72. Codec ID/Info                            : UTF-8 Plain Text
  73. Title                                    : SDH
  74. Language                                 : English
  75. Default                                  : No
  76. Forced                                   : No
  77. Statistics Tags Issue                    : no_variable_data 1970-01-01 00:00:00 / no_variable_data 2010-02-22 21:41:29
  78. FromStats_BitRate                        : 61
  79. FromStats_Duration                       : 01:59:26.326000000
  80. FromStats_FrameCount                     : 1476
  81. FromStats_StreamSize                     : 54800

  82. Menu
  83. 00:00:00.000                             : en:Chapter 01
  84. 00:11:52.086                             : en:Chapter 02
  85. 00:23:07.886                             : en:Chapter 03
  86. 00:32:03.338                             : en:Chapter 04
  87. 00:41:14.138                             : en:Chapter 05
  88. 00:50:10.883                             : en:Chapter 06
  89. 01:01:03.827                             : en:Chapter 07
  90. 01:14:11.864                             : en:Chapter 08
  91. 01:22:42.916                             : en:Chapter 09
  92. 01:33:13.338                             : en:Chapter 10
  93. 01:43:38.796                             : en:Chapter 11
  94. 01:52:10.057                             : en:Chapter 12
复制代码

千面人 Man.of.a.Thousand.Faces.1957.1080p.BluRay.x264-PSYCHD 12.04GB-2.png







VIP会员免费任意下载本站所有资源!---点击开通
回复

使用道具 举报

懒得打字嘛,点击右侧快捷回复 【右侧内容,后台自定义】
您需要登录后才可以回帖 登录 | 立即注册

本版积分规则

QQ|Archiver|手机版|小黑屋| 中国高清网 |网站地图

GMT+8, 2019-11-22 05:19 , Processed in 0.238963 second(s), 37 queries .

Powered by HDchina X3.4

Copyright 2017-2019©HDchina.All right reserved

返回顶部 联系我们