查看: 9|回复: 0

[纪录片] 模糊地带:艺术圈内 Blurred.Lines.Inside.the.Art.World.2017.1080p.NF.WEBRip.DD5.1.x264-QOQ 3.13GB

[复制链接]

 成长值: 3230

级别:资源管理组

注册时间
2017-10-20
最后登录
2019-11-21
听众
1
收听
0
主题
87390
蓝光币
63614 枚
贡献
11749 点
发表于 2019-11-6 21:33:08 | 显示全部楼层 |阅读模式
模糊地带:艺术圈内 Blurred.Lines.Inside.the.Art.World.2017.1080p.NF.WEBRip.DD5.1.x264-QOQ 3.13GB-1.png

译  名 模糊地带:艺术圈内
片  名 Blurred Lines: Inside the Art World
年  代 2017
产  地 加拿大
类  别 记载片
语  言 英语
上映日期 2017-04-23
IMDb评分  6.3/10 from 283 users
IMDb链接  https://www.imdb.com/title/tt5602204
豆瓣评分 7.3/10 from 71 users
豆瓣链接 https://movie.douban.com/subject/26919077/
片  长 84分钟
导  演 Barry Avrich
编  剧 Barry Avrich
主  演 朱利安·施纳贝尔 Julian Schnabel
       玛瑞娜·阿布拉莫维奇 Marina Abramovic
       Rashid Johnson
       Vicky Ward
       Michael Ovitz
       Amy Cappellazzo


标  签 记载片 | 艺术 | Art | 2017 | 紀錄片 | Documentary | Artist | 藝術家

简  介  

  As one art scene insider proclaims, the contemporary art world can be summed up as “rich people trying to prove how rich they are,” but is that all there is to this billion dollar industry? Well-researched and expertly constructed, Barry Avrich’s eye-opening documentary peels back the layers of the art world economy- from production to circulation, and delineates every integral player in the game of art-making, including curators, gallerists, collectors, donors, auction houses, and … artists. In the process, he unpacks the complex and surprising ecosystem that supports the art world superstars and million-dollar deals that make front-page news. Featuring extraordinary access to industry players and candid statements from prominent artists like Damien Hirst, Julian Schnabel, Taryn Simon, and Marina Abramovic, Blurred Lines collides the two narratives of the art world as both above and beholden to market forces.
  1. Video
  2. ID                                       : 1
  3. Format                                   : AVC
  4. Format/Info                              : Advanced Video Codec
  5. Format profile                           : High@L4
  6. Format settings                          : CABAC / 3 Ref Frames
  7. Format settings, CABAC                   : Yes
  8. Format settings, Reference frames        : 3 frames
  9. Codec ID                                 : V_MPEG4/ISO/AVC
  10. Duration                                 : 1 h 25 min
  11. Bit rate mode                            : Variable
  12. Bit rate                                 : 4 870 kb/s
  13. Maximum bit rate                         : 7 305 kb/s
  14. Width                                    : 1 920 pixels
  15. Height                                   : 1 080 pixels
  16. Display aspect ratio                     : 16:9
  17. Frame rate mode                          : Constant
  18. Frame rate                               : 23.976 (24000/1001) FPS
  19. Color space                              : YUV
  20. Chroma subsampling                       : 4:2:0
  21. Bit depth                                : 8 bits
  22. Scan type                                : Progressive
  23. Bits/(Pixel*Frame)                       : 0.098
  24. Stream size                              : 2.89 GiB (93%)
  25. Writing library                          : x264 core 148
  26. Encoding settings                        : cabac=1 / ref=3 / deblock=1:0:0 / analyse=0x1:0x111 / me=umh / subme=10 / psy=1 / psy_rd=1.00:0.00 / mixed_ref=1 / me_range=24 / chroma_me=1 / trellis=2 / 8x8dct=0 / cqm=0 / deadzone=21,11 / fast_pskip=1 / chroma_qp_offset=-2 / threads=8 / lookahead_threads=1 / sliced_threads=0 / nr=0 / decimate=1 / interlaced=0 / bluray_compat=0 / stitchable=1 / constrained_intra=0 / bframes=2 / b_pyramid=0 / b_adapt=2 / b_bias=0 / direct=3 / weightb=1 / open_gop=0 / weightp=2 / keyint=48 / keyint_min=25 / scenecut=0 / intra_refresh=0 / rc_lookahead=48 / rc=2pass / mbtree=1 / bitrate=4870 / ratetol=1.0 / qcomp=0.50 / qpmin=6 / qpmax=51 / qpstep=4 / cplxblur=20.0 / qblur=0.5 / vbv_maxrate=7305 / vbv_bufsize=9740 / nal_hrd=vbr / filler=0 / ip_ratio=1.40 / aq=1:1.00
  27. Default                                  : Yes
  28. Forced                                   : No

  29. Audio
  30. ID                                       : 2
  31. Format                                   : AC-3
  32. Format/Info                              : Audio Coding 3
  33. Commercial name                          : Dolby Digital
  34. Codec ID                                 : A_AC3
  35. Duration                                 : 1 h 25 min
  36. Bit rate mode                            : Constant
  37. Bit rate                                 : 384 kb/s
  38. Channel(s)                               : 6 channels
  39. Channel layout                           : L R C LFE Ls Rs
  40. Sampling rate                            : 48.0 kHz
  41. Frame rate                               : 31.250 FPS (1536 SPF)
  42. Bit depth                                : 16 bits
  43. Compression mode                         : Lossy
  44. Stream size                              : 235 MiB (7%)
  45. Language                                 : English
  46. Service kind                             : Complete Main
  47. Default                                  : Yes
  48. Forced                                   : No

  49. Text #1
  50. ID                                       : 3
  51. Format                                   : UTF-8
  52. Codec ID                                 : S_TEXT/UTF8
  53. Codec ID/Info                            : UTF-8 Plain Text
  54. Duration                                 : 1 h 25 min
  55. Bit rate                                 : 104 b/s
  56. Count of elements                        : 1432
  57. Stream size                              : 65.3 KiB (0%)
  58. Title                                    : English
  59. Language                                 : English
  60. Default                                  : No
  61. Forced                                   : No

  62. Text #2
  63. ID                                       : 4
  64. Format                                   : UTF-8
  65. Codec ID                                 : S_TEXT/UTF8
  66. Codec ID/Info                            : UTF-8 Plain Text
  67. Duration                                 : 1 h 24 min
  68. Bit rate                                 : 88 b/s
  69. Count of elements                        : 1339
  70. Stream size                              : 54.7 KiB (0%)
  71. Title                                    : Spanish
  72. Language                                 : Spanish
  73. Default                                  : No
  74. Forced                                   : No

  75. Text #3
  76. ID                                       : 5
  77. Format                                   : UTF-8
  78. Codec ID                                 : S_TEXT/UTF8
  79. Codec ID/Info                            : UTF-8 Plain Text
  80. Duration                                 : 1 h 21 min
  81. Bit rate                                 : 102 b/s
  82. Count of elements                        : 1337
  83. Stream size                              : 61.5 KiB (0%)
  84. Title                                    : French
  85. Language                                 : French
  86. Default                                  : No
  87. Forced                                   : No
复制代码

模糊地带:艺术圈内 Blurred.Lines.Inside.the.Art.World.2017.1080p.NF.WEBRip.DD5.1.x264-QOQ 3.13GB-2.png 模糊地带:艺术圈内 Blurred.Lines.Inside.the.Art.World.2017.1080p.NF.WEBRip.DD5.1.x264-QOQ 3.13GB-3.png 模糊地带:艺术圈内 Blurred.Lines.Inside.the.Art.World.2017.1080p.NF.WEBRip.DD5.1.x264-QOQ 3.13GB-4.png 87584055012834239665_medium.png 模糊地带:艺术圈内 Blurred.Lines.Inside.the.Art.World.2017.1080p.NF.WEBRip.DD5.1.x264-QOQ 3.13GB-6.png 模糊地带:艺术圈内 Blurred.Lines.Inside.the.Art.World.2017.1080p.NF.WEBRip.DD5.1.x264-QOQ 3.13GB-7.png







VIP会员免费任意下载本站所有资源!---点击开通
回复

使用道具 举报

懒得打字嘛,点击右侧快捷回复 【右侧内容,后台自定义】
您需要登录后才可以回帖 登录 | 立即注册

本版积分规则

QQ|Archiver|手机版|小黑屋| 中国高清网 |网站地图

GMT+8, 2019-11-22 04:44 , Processed in 0.243798 second(s), 37 queries .

Powered by HDchina X3.4

Copyright 2017-2019©HDchina.All right reserved

返回顶部 联系我们