查看: 8|回复: 0

[剧情片] 伙计接龙 Buddy.Solitaire.2016.1080p.AMZN.WEBRip.DDP5.1.x264-monkee 3.29GB

[复制链接]

 成长值: 3160

级别:资源管理组

注册时间
2017-10-20
最后登录
2019-11-11
听众
1
收听
0
主题
86761
蓝光币
61819 枚
贡献
11119 点
发表于 2019-11-6 21:30:37 | 显示全部楼层 |阅读模式
伙计接龙 Buddy.Solitaire.2016.1080p.AMZN.WEBRip.DDP5.1.x264-monkee 3.29GB-1.png

译  名 伙计接龙
片  名 Buddy Solitaire
年  代 2016
产  地 美国
类  别 剧情 / 笑剧
语  言 英语
上映日期 2016-03-04(美国)
IMDb评分  5.7/10 from 118 users
IMDb链接  https://www.imdb.com/title/tt3721924
豆瓣评分 0/10 from 0 users
豆瓣链接 https://movie.douban.com/subject/26788665/
片  长 86分钟
导  演 Kuang Lee
主  演 莎莉·柯克兰德 Sally Kirkland
       Hannah Kat Jones
       Elaine Loh
       Dennis Mencia
       Shawn Kathryn Kane
       Sarah Sharman


简  介  

  Buddy Solitaire is a struggling comedian on the late night circuit. The only job he can get is teaching comedy to the mentally ill. Buddy discovers, however, that by helping these patients, he can get closer and closer to healing himself.
  1. Video
  2. ID                                       : 1
  3. Format                                   : AVC
  4. Format/Info                              : Advanced Video Codec
  5. Format profile                           : High@L4
  6. Format settings                          : CABAC / 4 Ref Frames
  7. Format settings, CABAC                   : Yes
  8. Format settings, Reference frames        : 4 frames
  9. Codec ID                                 : V_MPEG4/ISO/AVC
  10. Duration                                 : 1 h 26 min
  11. Bit rate mode                            : Variable
  12. Bit rate                                 : 4 797 kb/s
  13. Maximum bit rate                         : 15.0 Mb/s
  14. Width                                    : 1 920 pixels
  15. Height                                   : 800 pixels
  16. Display aspect ratio                     : 2.40:1
  17. Frame rate mode                          : Constant
  18. Frame rate                               : 23.976 (24000/1001) FPS
  19. Color space                              : YUV
  20. Chroma subsampling                       : 4:2:0
  21. Bit depth                                : 8 bits
  22. Scan type                                : Progressive
  23. Bits/(Pixel*Frame)                       : 0.130
  24. Stream size                              : 2.90 GiB (88%)
  25. Default                                  : Yes
  26. Forced                                   : No
  27. Color range                              : Limited
  28. Color primaries                          : BT.709
  29. Transfer characteristics                 : BT.709
  30. Matrix coefficients                      : BT.709

  31. Audio
  32. ID                                       : 2
  33. Format                                   : E-AC-3
  34. Format/Info                              : Enhanced AC-3
  35. Commercial name                          : Dolby Digital Plus
  36. Codec ID                                 : A_EAC3
  37. Duration                                 : 1 h 26 min
  38. Bit rate mode                            : Constant
  39. Bit rate                                 : 640 kb/s
  40. Channel(s)                               : 6 channels
  41. Channel layout                           : L R C LFE Ls Rs
  42. Sampling rate                            : 48.0 kHz
  43. Frame rate                               : 31.250 FPS (1536 SPF)
  44. Compression mode                         : Lossy
  45. Stream size                              : 396 MiB (12%)
  46. Language                                 : English
  47. Service kind                             : Complete Main
  48. Default                                  : Yes
  49. Forced                                   : No

  50. Text #1
  51. ID                                       : 3
  52. Format                                   : UTF-8
  53. Codec ID                                 : S_TEXT/UTF8
  54. Codec ID/Info                            : UTF-8 Plain Text
  55. Duration                                 : 1 h 24 min
  56. Bit rate                                 : 70 b/s
  57. Count of elements                        : 1429
  58. Stream size                              : 43.8 KiB (0%)
  59. Language                                 : English
  60. Default                                  : No
  61. Forced                                   : No

  62. Text #2
  63. ID                                       : 4
  64. Format                                   : UTF-8
  65. Codec ID                                 : S_TEXT/UTF8
  66. Codec ID/Info                            : UTF-8 Plain Text
  67. Duration                                 : 1 h 24 min
  68. Bit rate                                 : 75 b/s
  69. Count of elements                        : 1529
  70. Stream size                              : 46.7 KiB (0%)
  71. Title                                    : SDH
  72. Language                                 : English
  73. Default                                  : No
  74. Forced                                   : No
复制代码

212905oowfcr1wpoy8prop.png 伙计接龙 Buddy.Solitaire.2016.1080p.AMZN.WEBRip.DDP5.1.x264-monkee 3.29GB-3.png 伙计接龙 Buddy.Solitaire.2016.1080p.AMZN.WEBRip.DDP5.1.x264-monkee 3.29GB-4.png 伙计接龙 Buddy.Solitaire.2016.1080p.AMZN.WEBRip.DDP5.1.x264-monkee 3.29GB-5.png 伙计接龙 Buddy.Solitaire.2016.1080p.AMZN.WEBRip.DDP5.1.x264-monkee 3.29GB-6.png 伙计接龙 Buddy.Solitaire.2016.1080p.AMZN.WEBRip.DDP5.1.x264-monkee 3.29GB-7.png







VIP会员免费任意下载本站所有资源!---点击开通
回复

使用道具 举报

懒得打字嘛,点击右侧快捷回复 【右侧内容,后台自定义】
您需要登录后才可以回帖 登录 | 立即注册

本版积分规则

QQ|Archiver|手机版|小黑屋| 中国高清网 |网站地图 

GMT+8, 2019-11-15 08:21 , Processed in 0.241319 second(s), 37 queries .

Powered by HDchina X3.4

Copyright 2017-2019©HDchina.All right reserved

返回顶部 联系我们