查看: 8|回复: 0

[喜剧片] 妙人妙计/异想天开 Dont.Raise.the.Bridge.Lower.the.River.1968.1080p.AMZN.WEBRip.DDP2.0.x264-ABM 10.56GB

[复制链接]

 成长值: 3160

级别:资源管理组

注册时间
2017-10-20
最后登录
2019-11-11
听众
1
收听
0
主题
86761
蓝光币
61811 枚
贡献
11119 点
发表于 2019-11-6 21:27:54 | 显示全部楼层 |阅读模式
212706jqqzrirfe3r3grdr.png

译  名 妙人奇策 / 异想天开 / 荒谬奇策俏娇妻
片  名 Don't Raise the Bridge, Lower the River
年  代 1968
产  地 英国
类  别 笑剧
语  言 英语
上映日期 1968-06-24
IMDb评分  4.8/10 from 511 users
IMDb链接  https://www.imdb.com/title/tt0061591
豆瓣评分 0/10 from 0 users
豆瓣链接 https://movie.douban.com/subject/1294822/
片  长 USA: 99 分钟
导  演 杰里 帕里斯 (Jerry Paris)
编  剧 Max Wilk
主  演 Jerry Lewis
       Terry-Thomas
       Jacqueline Pearce


标  签 黑色诙谐 | 英国 | 正大戏院 | 无厘头 | WoodyAllen | 典范老片 | 恋爱 | 搞笑

简  介  

  An American plans to bilk the British out of some considerable money with the help of an English con artist.
  1. Video
  2. ID                                       : 1
  3. Format                                   : AVC
  4. Format/Info                              : Advanced Video Codec
  5. Format profile                           : High@L4
  6. Format settings                          : CABAC / 4 Ref Frames
  7. Format settings, CABAC                   : Yes
  8. Format settings, Reference frames        : 4 frames
  9. Codec ID                                 : V_MPEG4/ISO/AVC
  10. Duration                                 : 1 h 39 min
  11. Bit rate mode                            : Variable
  12. Bit rate                                 : 15.0 Mb/s
  13. Width                                    : 1 920 pixels
  14. Height                                   : 1 080 pixels
  15. Display aspect ratio                     : 16:9
  16. Frame rate mode                          : Constant
  17. Frame rate                               : 23.976 (24000/1001) FPS
  18. Color space                              : YUV
  19. Chroma subsampling                       : 4:2:0
  20. Bit depth                                : 8 bits
  21. Scan type                                : Progressive
  22. Bits/(Pixel*Frame)                       : 0.302
  23. Stream size                              : 10.4 GiB (99%)
  24. Writing library                          : x264 core 148 r2623 d5b2374
  25. Encoding settings                        : cabac=1 / ref=4 / deblock=1:-1:-1 / analyse=0x3:0x133 / me=umh / subme=9 / psy=1 / psy_rd=1.00:0.15 / mixed_ref=1 / me_range=24 / chroma_me=1 / trellis=2 / 8x8dct=1 / cqm=0 / deadzone=21,11 / fast_pskip=1 / chroma_qp_offset=-3 / threads=34 / lookahead_threads=5 / sliced_threads=0 / nr=150 / decimate=1 / interlaced=0 / bluray_compat=0 / constrained_intra=0 / bframes=8 / b_pyramid=2 / b_adapt=2 / b_bias=0 / direct=3 / weightb=1 / open_gop=0 / weightp=2 / keyint=120 / keyint_min=61 / scenecut=0 / intra_refresh=0 / rc_lookahead=120 / rc=crf / mbtree=1 / crf=18.0 / qcomp=0.60 / qpmin=0 / qpmax=69 / qpstep=4 / vbv_maxrate=15000 / vbv_bufsize=31250 / crf_max=0.0 / nal_hrd=vbr / filler=0 / ip_ratio=1.40 / aq=3:1.00
  26. Default                                  : Yes
  27. Forced                                   : No
  28. Color range                              : Limited
  29. Color primaries                          : BT.709
  30. Transfer characteristics                 : BT.709
  31. Matrix coefficients                      : BT.709

  32. Audio
  33. ID                                       : 2
  34. Format                                   : E-AC-3
  35. Format/Info                              : Enhanced AC-3
  36. Commercial name                          : Dolby Digital Plus
  37. Codec ID                                 : A_EAC3
  38. Duration                                 : 1 h 39 min
  39. Bit rate mode                            : Constant
  40. Bit rate                                 : 224 kb/s
  41. Channel(s)                               : 2 channels
  42. Channel layout                           : L R
  43. Sampling rate                            : 48.0 kHz
  44. Frame rate                               : 31.250 FPS (1536 SPF)
  45. Compression mode                         : Lossy
  46. Stream size                              : 160 MiB (1%)
  47. Language                                 : English
  48. Service kind                             : Complete Main
  49. Default                                  : Yes
  50. Forced                                   : No

  51. Text #1
  52. ID                                       : 3
  53. Format                                   : UTF-8
  54. Codec ID                                 : S_TEXT/UTF8
  55. Codec ID/Info                            : UTF-8 Plain Text
  56. Duration                                 : 1 h 38 min
  57. Bit rate                                 : 85 b/s
  58. Count of elements                        : 2181
  59. Stream size                              : 61.4 KiB (0%)
  60. Language                                 : English
  61. Default                                  : No
  62. Forced                                   : No

  63. Text #2
  64. ID                                       : 4
  65. Format                                   : UTF-8
  66. Codec ID                                 : S_TEXT/UTF8
  67. Codec ID/Info                            : UTF-8 Plain Text
  68. Duration                                 : 1 h 38 min
  69. Bit rate                                 : 86 b/s
  70. Count of elements                        : 2234
  71. Stream size                              : 62.3 KiB (0%)
  72. Title                                    : SDH
  73. Language                                 : English
  74. Default                                  : No
  75. Forced                                   : No
复制代码

妙人奇策/异想天开 Dont.Raise.the.Bridge.Lower.the.River.1968.1080p.AMZN.WEBRip.DDP2.0.x264-ABM 10.56GB-2.png 妙人奇策/异想天开 Dont.Raise.the.Bridge.Lower.the.River.1968.1080p.AMZN.WEBRip.DDP2.0.x264-ABM 10.56GB-3.png 妙人奇策/异想天开 Dont.Raise.the.Bridge.Lower.the.River.1968.1080p.AMZN.WEBRip.DDP2.0.x264-ABM 10.56GB-4.png







VIP会员免费任意下载本站所有资源!---点击开通
回复

使用道具 举报

懒得打字嘛,点击右侧快捷回复 【右侧内容,后台自定义】
您需要登录后才可以回帖 登录 | 立即注册

本版积分规则

QQ|Archiver|手机版|小黑屋| 中国高清网 |网站地图 

GMT+8, 2019-11-15 07:31 , Processed in 0.218365 second(s), 37 queries .

Powered by HDchina X3.4

Copyright 2017-2019©HDchina.All right reserved

返回顶部 联系我们