查看: 10|回复: 0

[剧情片] 第一夫人 First.Lady.2018.1080p.AMZN.WEBRip.DDP2.0.x264-CM 2.92GB

[复制链接]

 成长值: 3160

级别:资源管理组

注册时间
2017-10-20
最后登录
2019-11-11
听众
1
收听
0
主题
86761
蓝光币
61819 枚
贡献
11119 点
发表于 2019-11-6 21:26:21 | 显示全部楼层 |阅读模式
第一夫人 First.Lady.2018.1080p.AMZN.WEBRip.DDP2.0.x264-CM 2.92GB-1.png

译  名 第一夫人
片  名 First Lady
年  代 2018
产  地 美国
类  别 剧情
语  言 英语
上映日期 2018-09-10(美国)
IMDb评分  4.9/10 from 115 users
IMDb链接  https://www.imdb.com/title/tt7919372
豆瓣评分 0/10 from 0 users
豆瓣链接 https://movie.douban.com/subject/30411611/
导  演 Dennis L. Reed II
主  演 Nicole Alexander
       Jim Jones
       Karen McCants
       Mara Kanyon
       Grover McCants
       Kristin Clarke
       Royce Reed
       Demaris Harvey
       Julius Gregory
       Nigel morris
       Kendra Kouture
       Mike Bonner
       Alphonso Settles
       Lemastor Spratling
       Mushad Moore


标  签 剧情 | 2018 | 美国 | 犯罪

简  介  

  When Maria unknowingly falls for the man that killed the love of her life, all hell breaks loose.
  1. Video
  2. ID                                       : 1
  3. Format                                   : AVC
  4. Format/Info                              : Advanced Video Codec
  5. Format profile                           : High@L4
  6. Format settings                          : CABAC / 4 Ref Frames
  7. Format settings, CABAC                   : Yes
  8. Format settings, Reference frames        : 4 frames
  9. Codec ID                                 : V_MPEG4/ISO/AVC
  10. Duration                                 : 1 h 36 min
  11. Bit rate                                 : 4 108 kb/s
  12. Width                                    : 1 920 pixels
  13. Height                                   : 1 080 pixels
  14. Display aspect ratio                     : 16:9
  15. Frame rate mode                          : Constant
  16. Frame rate                               : 23.976 (24000/1001) FPS
  17. Color space                              : YUV
  18. Chroma subsampling                       : 4:2:0
  19. Bit depth                                : 8 bits
  20. Scan type                                : Progressive
  21. Bits/(Pixel*Frame)                       : 0.083
  22. Stream size                              : 2.77 GiB (95%)
  23. Default                                  : Yes
  24. Forced                                   : No
  25. Color range                              : Limited
  26. Color primaries                          : BT.709
  27. Transfer characteristics                 : BT.709
  28. Matrix coefficients                      : BT.709

  29. Audio
  30. ID                                       : 2
  31. Format                                   : E-AC-3
  32. Format/Info                              : Enhanced AC-3
  33. Commercial name                          : Dolby Digital Plus
  34. Codec ID                                 : A_EAC3
  35. Duration                                 : 1 h 36 min
  36. Bit rate mode                            : Constant
  37. Bit rate                                 : 224 kb/s
  38. Channel(s)                               : 2 channels
  39. Channel layout                           : L R
  40. Sampling rate                            : 48.0 kHz
  41. Frame rate                               : 31.250 FPS (1536 SPF)
  42. Compression mode                         : Lossy
  43. Stream size                              : 155 MiB (5%)
  44. Title                                    : English
  45. Language                                 : English
  46. Service kind                             : Complete Main
  47. Default                                  : Yes
  48. Forced                                   : No

  49. Text
  50. ID                                       : 3
  51. Format                                   : UTF-8
  52. Codec ID                                 : S_TEXT/UTF8
  53. Codec ID/Info                            : UTF-8 Plain Text
  54. Duration                                 : 1 h 36 min
  55. Bit rate                                 : 91 b/s
  56. Count of elements                        : 2378
  57. Stream size                              : 64.6 KiB (0%)
  58. Title                                    : English [SDH]
  59. Language                                 : English
  60. Default                                  : No
  61. Forced                                   : No
复制代码

第一夫人 First.Lady.2018.1080p.AMZN.WEBRip.DDP2.0.x264-CM 2.92GB-2.png 第一夫人 First.Lady.2018.1080p.AMZN.WEBRip.DDP2.0.x264-CM 2.92GB-3.png 第一夫人 First.Lady.2018.1080p.AMZN.WEBRip.DDP2.0.x264-CM 2.92GB-4.png







VIP会员免费任意下载本站所有资源!---点击开通
回复

使用道具 举报

懒得打字嘛,点击右侧快捷回复 【右侧内容,后台自定义】
您需要登录后才可以回帖 登录 | 立即注册

本版积分规则

QQ|Archiver|手机版|小黑屋| 中国高清网 |网站地图 

GMT+8, 2019-11-15 08:32 , Processed in 0.225060 second(s), 37 queries .

Powered by HDchina X3.4

Copyright 2017-2019©HDchina.All right reserved

返回顶部 联系我们