查看: 107|回复: 2

[剧情片] 光盲青春/摇滚青春颂 Blinded.by.the.Light.2019.720p.BluRay.x264-AAA 4.36GB

[复制链接]

 成长值: 5540

级别:资源管理组

注册时间
2017-10-20
最后登录
2020-6-3
听众
1
收听
0
主题
96338
蓝光币
154979 枚
贡献
20716 点
发表于 2019-11-6 15:39:25 | 显示全部楼层 |阅读模式
光盲青春/摇滚青春颂 Blinded.by.the.Light.2019.720p.BluRay.x264-AAA 4.36GB-1.png
6 u" _! U# G" {4 _5 I
* l" i; e/ y4 n7 W+ J译  名 光盲青春 / 摇滚青春颂(港) / 夺目之光(台)" _% q7 _# L# [+ d1 x$ S/ O- d) K
片  名 Blinded by the Light
) |2 T7 ~) R4 c. I8 C! y9 M/ O年  代 2019
- i2 [4 q5 P6 B) g2 \; q, I; {产  地 英国/ l( Q9 d/ d/ p
类  别 剧情 / 笑剧 / 歌舞 / 列传( A% g8 p2 L/ T( F
语  言 英语
% y7 f+ J1 j- |8 ]1 R1 O1 F上映日期 2019-01-27(圣丹斯电影节) / 2019-08-09(英国)$ @0 |+ ?9 m0 a. p7 ^/ ~* s" I( v+ C
IMDb评分  7.0/10 from 4935 users0 f# N% i' n: V/ a
IMDb链接  http://www.imdb.com/title/tt8266310
/ ~9 _5 O+ V+ Z) m3 `; G" T豆瓣评分 7.0/10 from 136 users0 s5 A1 z- s4 p6 u% {7 {' j
豆瓣链接 https://movie.douban.com/subject/30200414/
; X5 b0 r/ [" V8 v5 Q片  长 114分钟(圣丹斯电影节)
! ~7 S5 k3 d2 g4 j+ n导  演 顾伦德·查达哈 Gurinder Chadha
2 l: Z2 L, O- ?5 V# O' ^8 W% ~: e编  剧 顾伦德·查达哈 Gurinder Chadha / 保罗·梅达·贝哲斯 Paul Mayeda Berges / 萨弗拉齐·曼苏 Sarfraz Manzoor
  S+ W/ d- @. s6 [主  演 海莉·阿特维尔 Hayley Atwell
  o; ?) M6 |! L9 }7 k       维韦克·卡拉 Viveik Kalra: U0 s( x+ o) x! s0 f
       莎莉·菲利普斯 Sally Phillips
# l3 l6 W1 n5 Y       艾伦·菲格拉 Aaron Phagura
4 A" d9 E* O9 C* d9 B2 G0 o! x       迪恩·查尔斯·查普曼 Dean-Charles Chapman4 M; s  S6 i! k- Y1 P, m
       内尔·威廉姆斯 Nell Williams
) x2 v: N3 R. b9 j6 W       罗伯·布莱顿 Rob Brydon
: P+ {2 j* u- X( s2 K4 H       文森特·阿德里安 Vincent Andriano
8 F% o/ l, P% F# E& o: A" h       保罗·布莱克维尔 Paul Blackwell
0 x. I- k" S4 ~8 ?' y       约诺·戴维斯 Jonno Davies
4 p+ r! Y- p# x       奥利维亚·波莉 Olivia Poulet8 g- o4 f( E/ a# x2 X
       乔·惠特利 Jo Wheatley
! w9 x" ]  ~! W4 \  z) A# Y1 `$ O       贾格·帕特尔 Jag Patel5 @7 A& }4 e; t: `- ]8 d
       史蒂芬·萨姆森 Stephen Samson" {4 A( D% y% K
       阿图尔·夏尔马 Atul Sharma
7 Z1 @, D- `7 y7 H; v       阿什克·阿赫塔尔 Asheq Akhtar' Y+ ]- @3 l6 \) z/ s+ q) j3 i

4 e/ t5 w: h: l$ ^( x; C; X( e; \# W; n  D9 O. J: h
标  签 英国 | 青春 | 2019 | 音乐 | 剧情 | 80年月怀旧 | 美国 | 家庭
7 T7 }: }8 d( l; j0 h/ F5 i. ~  g
  _" k. v5 _4 S简  介  7 f+ z5 \9 |( z& u7 `$ b, ^
* S! C' q; X/ I% d" d% q
  报告的是1987年在英格兰一个小城镇里一个十几岁的移民男孩经过男歌手布鲁斯·斯普林斯汀的音乐找到理想、信心和自在的故事。
+ z' o. d+ g# z! ?
  1. Video2 H% d( Y& F7 b' G- m
  2. ID                                       : 19 N* ^8 s  v6 p8 H, W( u9 ~
  3. Format                                   : AVC
    ; t/ M) R( q3 m. v) ?
  4. Format/Info                              : Advanced Video Codec
    : L2 T2 w3 W, X" Q: s" [
  5. Format profile                           : High@L4
      v+ x1 E$ a9 K0 h
  6. Format settings                          : CABAC / 5 Ref Frames4 ]# N' n; e9 z5 e/ [/ ~
  7. Format settings, CABAC                   : Yes
    9 C6 |* ~9 v. k5 q1 m& C
  8. Format settings, Reference frames        : 5 frames
    : V+ N8 A4 M; ~6 V3 I
  9. Codec ID                                 : V_MPEG4/ISO/AVC/ K7 w6 g& _- K" E4 i
  10. Duration                                 : 1 h 57 min9 _, a2 ^# K" U. C1 n, W
  11. Bit rate                                 : 4 664 kb/s
    $ K6 u8 Q% q$ o/ v5 q% Q
  12. Width                                    : 1 280 pixels( \5 N: K. f3 d# @
  13. Height                                   : 536 pixels
    7 `( A3 n, [' F  M' U" D% E
  14. Display aspect ratio                     : 2.40:1
    1 W" i$ D% p! |5 q, p# z
  15. Frame rate mode                          : Constant; {* u1 n# C8 `8 X/ ?" b$ B. v
  16. Frame rate                               : 23.976 (24000/1001) FPS
    4 Y; b# T) u7 w) T! T( s, b; y
  17. Color space                              : YUV
    % f$ l! }/ h) J. s6 |* v
  18. Chroma subsampling                       : 4:2:0
    & g6 b% [  f  M
  19. Bit depth                                : 8 bits% @/ }7 C* m) y4 C
  20. Scan type                                : Progressive- a% [" e! ?; @& Q
  21. Bits/(Pixel*Frame)                       : 0.284$ |& I" m: o- t7 B8 n. M  M
  22. Stream size                              : 3.84 GiB (88%)) r9 b/ o2 L$ R; O' ~
  23. Title                                    : Blinded.by.the.Light.2019.720p.BluRay.x264-AAA
    2 [1 X- y( {( y# I0 b
  24. Writing library                          : x264 core 157 r2969 d4099dd$ B0 X; E/ _1 r" r4 ~
  25. Encoding settings                        : cabac=1 / ref=5 / deblock=1:0:0 / analyse=0x3:0x113 / me=umh / subme=8 / psy=1 / psy_rd=1.00:0.00 / mixed_ref=1 / me_range=16 / chroma_me=1 / trellis=2 / 8x8dct=1 / cqm=0 / deadzone=21,11 / fast_pskip=1 / chroma_qp_offset=-2 / threads=17 / lookahead_threads=2 / sliced_threads=0 / nr=0 / decimate=1 / interlaced=0 / bluray_compat=0 / constrained_intra=0 / bframes=3 / b_pyramid=2 / b_adapt=2 / b_bias=0 / direct=3 / weightb=1 / open_gop=0 / weightp=2 / keyint=240 / keyint_min=23 / scenecut=40 / intra_refresh=0 / rc_lookahead=50 / rc=2pass / mbtree=1 / bitrate=4664 / ratetol=1.0 / qcomp=0.60 / qpmin=0 / qpmax=69 / qpstep=4 / cplxblur=20.0 / qblur=0.5 / ip_ratio=1.40 / aq=1:1.00
    5 R2 o/ {) R! \9 Q/ ?
  26. Default                                  : Yes5 F  V% d( E0 J: J$ n: P/ y
  27. Forced                                   : No
    : ~' [# n  X3 h9 {: F6 j; x

  28.   \) t+ n& v5 O, ^6 N  S; V' d4 r
  29. Audio! t1 s4 K8 Q) Z! Q$ z
  30. ID                                       : 2
    0 v8 A# l6 v* X* N5 O$ q
  31. Format                                   : AC-31 I! L3 ?' B$ c- p' v) P6 E1 ~
  32. Format/Info                              : Audio Coding 3; a1 @) w5 \7 R. y
  33. Commercial name                          : Dolby Digital! l: n0 r% b6 ~/ q- p# j, X) G
  34. Codec ID                                 : A_AC3$ q: ]  ?, P  K4 \6 |9 k, g0 M
  35. Duration                                 : 1 h 57 min
    7 U0 y  e% b% {. p* y6 A7 t1 P
  36. Bit rate mode                            : Constant1 g9 R4 [( L5 ?  t, Y- f
  37. Bit rate                                 : 640 kb/s
    . {" w1 t- w4 l7 r" F* N* v5 E
  38. Channel(s)                               : 6 channels- I* g% ?- E& z$ U% M0 Q* s* \
  39. Channel layout                           : L R C LFE Ls Rs
    * _6 U$ G) `1 w
  40. Sampling rate                            : 48.0 kHz
    . k# s* K6 E- w- z! }
  41. Frame rate                               : 31.250 FPS (1536 SPF), F+ M8 l9 y6 T& F" e6 C" E
  42. Bit depth                                : 16 bits6 j9 x' L7 f/ O4 @! o6 v
  43. Compression mode                         : Lossy& r$ s1 D/ _) u
  44. Stream size                              : 539 MiB (12%)$ j% N6 G/ Z5 h0 ]
  45. Title                                    : English Dolby Digital (AC3); q+ s1 O5 r( I
  46. Language                                 : English. A' Z: L% x. c6 `8 v+ k8 {' {
  47. Service kind                             : Complete Main+ \0 h0 n$ r7 D# l4 ]
  48. Default                                  : Yes
    3 z0 g% @7 q/ C
  49. Forced                                   : No6 Y1 B& ]2 b9 L! G+ ?, ]! r
  50. ' J" u) ~. l" W% ~  v1 V
  51. Text* x1 O6 Z, m" {
  52. ID                                       : 3
    2 a4 u/ H  b6 C) T! S. h
  53. Format                                   : UTF-8
      s( u7 H4 P+ }3 u, o( b
  54. Codec ID                                 : S_TEXT/UTF8% W% W5 Y$ l4 [# r# Q% E3 D) d- L2 k# F
  55. Codec ID/Info                            : UTF-8 Plain Text9 P) o, [5 B4 h8 j  D
  56. Duration                                 : 1 h 50 min
    ) W1 k- G8 h; H- `5 A
  57. Bit rate                                 : 61 b/s
    7 A; |  m5 l' ]; u1 P8 Z
  58. Count of elements                        : 16354 C3 D- c6 |  p9 M
  59. Stream size                              : 49.8 KiB (0%)9 o" s" v8 `+ F
  60. Title                                    : English SDH
    - H- f2 U- g" M% d# x, K8 Q
  61. Language                                 : English
    ! n$ ]! Y, k' P0 C# v
  62. Default                                  : No
    8 Z; a. `) V2 g% U: \3 A! B
  63. Forced                                   : No
    , J9 Q$ r; l* k6 |; L" q/ `' E

  64. 9 |! G! @0 O  R. W3 \" y4 c
  65. Menu5 N" _/ \$ j# a+ o) P
  66. 00:00:00.000                             : :Chapter 012 x  @; s$ |, |+ _
  67. 00:11:10.211                             : :Chapter 02
    ; i8 S. r7 W6 F/ d
  68. 00:20:03.661                             : :Chapter 03
    ! s+ B' c4 A* a0 o# {6 h" s
  69. 00:30:13.270                             : :Chapter 04
    / t! G8 |: J3 f
  70. 00:39:49.596                             : :Chapter 05
    ; `: X: D2 z- F" U9 k' Y5 e$ ]
  71. 00:48:52.054                             : :Chapter 06( R6 f3 C3 k" l. d- C
  72. 00:58:27.212                             : :Chapter 078 d. e2 L, T9 d+ Q& X* ]$ V  Q( C
  73. 01:08:39.490                             : :Chapter 08
    1 r- o* B( b) `4 F* D
  74. 01:19:01.820                             : :Chapter 09! p1 t3 k. m- {; c- S
  75. 01:28:16.791                             : :Chapter 105 k5 m" K1 x0 B9 u" K# t1 D
  76. 01:40:07.043                             : :Chapter 119 s- ]* J+ E" |* g! U( W# `& r% w
  77. 01:51:37.399                             : :Chapter 12
复制代码

& ]# w3 X1 W5 P# Z) i, I9 } 光盲青春/摇滚青春颂 Blinded.by.the.Light.2019.720p.BluRay.x264-AAA 4.36GB-2.png 2 F0 l: d( I6 x4 v* q3 L& P' o
' a2 A  t. }" \  {8 o1 i

' W- G* w% }+ I( Y: h9 k) W+ E0 p9 ?$ E+ [8 S. A& R# o2 Z& z! c

/ g6 f( ]# i5 K; }% z# V  r2 T3 S. I) ~! b1 Y+ J8 P$ F; i' @; p

5 w9 `- f3 J3 H( \$ j6 u0 Q
; Q; T  d2 U2 }$ E" s) b. m
回复

使用道具 举报

级别:功成名就 Lv.9

注册时间
2019-4-24
最后登录
2020-6-3
听众
14
收听
0
主题
0
蓝光币
541 枚
贡献
0 点
发表于 2019-11-7 08:16:13 | 显示全部楼层
楼主发贴辛苦了,谢谢楼主分享!我觉得中国高清电影网是注册对了!
回复

使用道具 举报

级别:领衔主演 Lv.6

注册时间
2018-2-26
最后登录
2020-6-4
听众
17
收听
0
主题
0
蓝光币
283 枚
贡献
0 点
发表于 2019-11-7 09:37:20 | 显示全部楼层
5 C8 z4 m: j* V0 w8 k" a- l' \
这东西我收了!谢谢楼主!中国高清电影网真好!
回复

使用道具 举报

懒得打字嘛,点击右侧快捷回复 【右侧内容,后台自定义】
您需要登录后才可以回帖 登录 | 立即注册

本版积分规则

Archiver|手机版|小黑屋| 中国高清网 ( ICP备17007870号-2 ) |网站地图 

GMT+8, 2020-6-4 16:25 , Processed in 0.163638 second(s), 38 queries .

Powered by HDchina X3.4

Copyright 2017-2019©HDchina.All right reserved

返回顶部 联系我们