查看: 44|回复: 2

[剧情片] 光盲青春/摇滚青春颂 Blinded.by.the.Light.2019.720p.BluRay.x264-AAA 4.36GB

[复制链接]

 成长值: 3230

级别:资源管理组

注册时间
2017-10-20
最后登录
2019-11-21
听众
1
收听
0
主题
87390
蓝光币
63616 枚
贡献
11749 点
发表于 2019-11-6 15:39:25 | 显示全部楼层 |阅读模式
光盲青春/摇滚青春颂 Blinded.by.the.Light.2019.720p.BluRay.x264-AAA 4.36GB-1.png $ ~3 V3 x* D; X, _( z5 [& m

% E! _5 w. \' c' K' ^" E译  名 光盲青春 / 摇滚青春颂(港) / 夺目之光(台)! s$ j$ ?* s$ H4 U. F+ f2 w' w
片  名 Blinded by the Light2 Q: }5 h& d' l
年  代 2019
! j" W  q$ N6 w* @3 k6 M  [6 _产  地 英国
+ P7 X  w0 _- l& e% R& c7 [类  别 剧情 / 笑剧 / 歌舞 / 列传7 q3 D( S% U  l) B
语  言 英语+ H: V- ]& s- {* `9 h9 n. W0 y
上映日期 2019-01-27(圣丹斯电影节) / 2019-08-09(英国)
7 s: E3 W  {& y5 H: VIMDb评分  7.0/10 from 4935 users
$ f7 ^) k+ K' w1 g/ [+ ^IMDb链接  http://www.imdb.com/title/tt8266310
' N8 h  c; L/ y9 o豆瓣评分 7.0/10 from 136 users  Q* Y% }& _8 B. Y7 U
豆瓣链接 https://movie.douban.com/subject/30200414/7 M3 R0 W+ n* B* d
片  长 114分钟(圣丹斯电影节)
  o% n: z( V2 ^5 v$ o& w导  演 顾伦德·查达哈 Gurinder Chadha7 A4 u0 ?6 m2 M# E, g! T6 ]7 j. n
编  剧 顾伦德·查达哈 Gurinder Chadha / 保罗·梅达·贝哲斯 Paul Mayeda Berges / 萨弗拉齐·曼苏 Sarfraz Manzoor
1 o$ E, k$ |! M. S2 W主  演 海莉·阿特维尔 Hayley Atwell( x! E8 F; Q2 o2 h0 F
       维韦克·卡拉 Viveik Kalra
, K$ [, i4 {/ c  G$ v2 N5 u! K       莎莉·菲利普斯 Sally Phillips
1 |7 m* z; M6 `       艾伦·菲格拉 Aaron Phagura3 C7 k4 V$ c1 N. a, |
       迪恩·查尔斯·查普曼 Dean-Charles Chapman
2 S; P  |, K2 e/ c9 @/ S       内尔·威廉姆斯 Nell Williams! \# y& b1 d8 S/ F. H' X
       罗伯·布莱顿 Rob Brydon* I4 F2 @. f/ k0 z2 [
       文森特·阿德里安 Vincent Andriano
8 G0 P5 e, }' L. e. K2 f1 A/ G       保罗·布莱克维尔 Paul Blackwell9 O9 C3 B' _! @; h. g
       约诺·戴维斯 Jonno Davies
, |: W* R) M5 N+ h       奥利维亚·波莉 Olivia Poulet: u$ @9 e$ `8 {, J, K+ [* u
       乔·惠特利 Jo Wheatley6 {. E0 A0 e9 k' I
       贾格·帕特尔 Jag Patel0 z7 s" d7 `8 J, p, O* V
       史蒂芬·萨姆森 Stephen Samson( @' W& q" M% p5 |- ^% `6 B8 ]
       阿图尔·夏尔马 Atul Sharma
* U/ {5 s8 s' _6 C  [       阿什克·阿赫塔尔 Asheq Akhtar
; P3 i- @6 V7 i) o7 n" g& \' {* Q. J: a& E9 ?0 j
- k+ m6 p8 P1 Y; Y( A9 `
标  签 英国 | 青春 | 2019 | 音乐 | 剧情 | 80年月怀旧 | 美国 | 家庭
% ?/ G0 d$ [% A7 M, Z" Y. V. [
# p8 n4 w2 h8 X) Q' {简  介  
4 U' T# c; u; G, @- ~1 \7 p7 j$ o9 }5 l5 F) D. [
  报告的是1987年在英格兰一个小城镇里一个十几岁的移民男孩经过男歌手布鲁斯·斯普林斯汀的音乐找到理想、信心和自在的故事。/ q0 r1 ^% E) z7 q# K
  1. Video
    , r- d9 d4 H9 P" K: D. R' d& U  F) k
  2. ID                                       : 1
    + G& v' ~! s* c8 E
  3. Format                                   : AVC  \! {% Y/ q' P/ Y" Z
  4. Format/Info                              : Advanced Video Codec
    $ N8 D$ o' t2 Z/ ?5 L
  5. Format profile                           : High@L40 Q6 @" s" E) _. z0 Y  l; _+ _
  6. Format settings                          : CABAC / 5 Ref Frames" r$ F2 ]2 E; ?5 [
  7. Format settings, CABAC                   : Yes& n: G! ?$ o! b2 |  g5 e2 o
  8. Format settings, Reference frames        : 5 frames
    ! F* T. u0 |+ Z  A( H2 }
  9. Codec ID                                 : V_MPEG4/ISO/AVC/ x( D! O* c4 R7 k% U( w
  10. Duration                                 : 1 h 57 min- h! O1 Q1 |" e) i
  11. Bit rate                                 : 4 664 kb/s
    - A& k# U# y4 h, J+ ~# e+ H
  12. Width                                    : 1 280 pixels
    8 ^) m' m" C$ o3 K# R9 H
  13. Height                                   : 536 pixels! [5 ~( v9 s' @& g0 _
  14. Display aspect ratio                     : 2.40:1
    ) _: l8 L9 H9 B1 r: B/ c
  15. Frame rate mode                          : Constant3 j* h8 N+ i, s+ j% w
  16. Frame rate                               : 23.976 (24000/1001) FPS$ V& Y. ]# D, N5 X
  17. Color space                              : YUV
    ( t7 [# f7 ?4 m5 k! f" y
  18. Chroma subsampling                       : 4:2:0
    ' Y) x3 O2 V( s9 W& H2 `
  19. Bit depth                                : 8 bits0 l# r( Z6 F2 H" B. `
  20. Scan type                                : Progressive0 K8 B7 ?, y1 p+ R# E2 ]/ i, q
  21. Bits/(Pixel*Frame)                       : 0.2847 a' j& o2 c. l5 ^
  22. Stream size                              : 3.84 GiB (88%)( u5 `1 G5 U' f/ B8 i2 q
  23. Title                                    : Blinded.by.the.Light.2019.720p.BluRay.x264-AAA
    2 J! `# }8 m& V. {
  24. Writing library                          : x264 core 157 r2969 d4099dd
    & W6 I, X, a: _& G2 s6 D
  25. Encoding settings                        : cabac=1 / ref=5 / deblock=1:0:0 / analyse=0x3:0x113 / me=umh / subme=8 / psy=1 / psy_rd=1.00:0.00 / mixed_ref=1 / me_range=16 / chroma_me=1 / trellis=2 / 8x8dct=1 / cqm=0 / deadzone=21,11 / fast_pskip=1 / chroma_qp_offset=-2 / threads=17 / lookahead_threads=2 / sliced_threads=0 / nr=0 / decimate=1 / interlaced=0 / bluray_compat=0 / constrained_intra=0 / bframes=3 / b_pyramid=2 / b_adapt=2 / b_bias=0 / direct=3 / weightb=1 / open_gop=0 / weightp=2 / keyint=240 / keyint_min=23 / scenecut=40 / intra_refresh=0 / rc_lookahead=50 / rc=2pass / mbtree=1 / bitrate=4664 / ratetol=1.0 / qcomp=0.60 / qpmin=0 / qpmax=69 / qpstep=4 / cplxblur=20.0 / qblur=0.5 / ip_ratio=1.40 / aq=1:1.00
    % Y$ E: u4 B1 i) r& S7 m8 X
  26. Default                                  : Yes
    2 i& W& }/ {3 U* u% d, @
  27. Forced                                   : No
    8 V; R1 k' d4 S/ D
  28. " R* [! O6 O( r3 t- {6 q& q, e
  29. Audio, l. b3 j% K/ W4 ~, `
  30. ID                                       : 2* G+ L" Q1 H  D: \. ^" H  f
  31. Format                                   : AC-3, q. ~, C8 U5 M/ \! K6 |
  32. Format/Info                              : Audio Coding 3
    0 R, [: j4 C, W3 o) T
  33. Commercial name                          : Dolby Digital9 z- @0 D' s* U& V$ ]
  34. Codec ID                                 : A_AC37 ]. g% x2 R0 M9 T7 U' l
  35. Duration                                 : 1 h 57 min( b& \5 p- \. R2 I; U* @* f
  36. Bit rate mode                            : Constant# J( N7 q4 m, X$ G  F4 @
  37. Bit rate                                 : 640 kb/s1 l# ?& j" o. o
  38. Channel(s)                               : 6 channels* C/ n& _' k/ V
  39. Channel layout                           : L R C LFE Ls Rs
      |! h0 g. f# K0 a* `/ [4 y0 b
  40. Sampling rate                            : 48.0 kHz# o: O# ]' ^1 ?! u4 b
  41. Frame rate                               : 31.250 FPS (1536 SPF)7 x, \& _8 O" W% x  v( \
  42. Bit depth                                : 16 bits
    . b, Y; X+ X8 h. F
  43. Compression mode                         : Lossy
    9 p+ W: l+ }2 d+ `" y' |" S! t
  44. Stream size                              : 539 MiB (12%)
    ) Q" h; u. [( f+ k; ~$ C2 e
  45. Title                                    : English Dolby Digital (AC3)
    4 h% Z% s1 `: w; Q& M% o$ I# L
  46. Language                                 : English3 Y8 Z8 X) |5 R8 z/ B9 y
  47. Service kind                             : Complete Main: S+ J$ L% r) K% k1 l
  48. Default                                  : Yes
    9 Z9 I+ B2 Q+ k3 @/ y! t
  49. Forced                                   : No
    8 g6 w7 R! ?& C1 U
  50. # m1 y# d/ O/ l1 Z
  51. Text5 O1 U% R/ c0 w* L- C& {+ [
  52. ID                                       : 38 I1 R8 r3 ^/ G3 Z
  53. Format                                   : UTF-8
    % \, ^1 i4 i  Q
  54. Codec ID                                 : S_TEXT/UTF8
    & Q1 i8 n6 a( g8 v
  55. Codec ID/Info                            : UTF-8 Plain Text
    , ^5 s/ M. ?+ m1 i) I" ], }+ P
  56. Duration                                 : 1 h 50 min- V! f; \5 p/ q: Z9 G
  57. Bit rate                                 : 61 b/s* a# p5 ]' }+ t! V# V4 q, b
  58. Count of elements                        : 1635! ~: l/ B/ ^* e( N: b4 m2 `
  59. Stream size                              : 49.8 KiB (0%)
    # M( c& r* U; U' N9 {$ b& j
  60. Title                                    : English SDH3 M" t- q) F# v4 d2 |
  61. Language                                 : English
    $ P# ?4 |3 }- y" S2 C% Z+ N
  62. Default                                  : No
    # _; O4 T% A% i4 t3 _
  63. Forced                                   : No4 w, ~0 r* p; I) q$ W; V7 A  c
  64. * V: I4 ^( W7 G) a! ?
  65. Menu! p" ]& i  k1 J  g7 @
  66. 00:00:00.000                             : :Chapter 01  [0 ^, N7 L+ ~5 f) k4 r7 o
  67. 00:11:10.211                             : :Chapter 02+ J7 c1 L* n* d; S6 g7 m
  68. 00:20:03.661                             : :Chapter 03
    . A5 ?( _$ y6 [* [' I% G6 a
  69. 00:30:13.270                             : :Chapter 04
    % U# s1 j4 R/ Y0 u) `0 B3 A
  70. 00:39:49.596                             : :Chapter 05- b. m7 c  ~0 }  Z: _' C, X- Q4 j
  71. 00:48:52.054                             : :Chapter 06
    5 B* _8 m# K6 @- y# D
  72. 00:58:27.212                             : :Chapter 07; W6 X( z) @$ n# o- G+ B& N* d
  73. 01:08:39.490                             : :Chapter 08, }; B/ j7 {: q  h! F! }' ~$ k) X
  74. 01:19:01.820                             : :Chapter 091 T* G* t! y; a
  75. 01:28:16.791                             : :Chapter 104 p* }" x! e! q; F
  76. 01:40:07.043                             : :Chapter 11
    0 _  m9 P- j/ O% o4 }9 H9 m
  77. 01:51:37.399                             : :Chapter 12
复制代码
( s: M& h# m8 _) a
光盲青春/摇滚青春颂 Blinded.by.the.Light.2019.720p.BluRay.x264-AAA 4.36GB-2.png 5 Z0 {. N* Z, A7 D

- o6 t. r' x  x2 o# d! }$ J& x
& a1 T: T' e* B2 J7 b
" k2 @2 s% e, \5 p
, e- _3 `6 ^2 u( e$ w8 D, ~
2 Z; ^/ V) N* d' S
& N6 \9 g8 U) @$ x& [- Z2 U! d8 Y; I
VIP会员免费任意下载本站所有资源!---点击开通
回复

使用道具 举报

级别:一举成名 Lv.7

注册时间
2019-4-24
最后登录
2019-11-21
听众
13
收听
0
主题
0
蓝光币
197 枚
贡献
0 点
发表于 2019-11-7 08:16:13 | 显示全部楼层
楼主发贴辛苦了,谢谢楼主分享!我觉得中国高清电影网是注册对了!
VIP会员免费任意下载本站所有资源!---点击开通
回复

使用道具 举报

级别:荣升主角 Lv.5

注册时间
2018-2-26
最后登录
2019-11-21
听众
15
收听
0
主题
0
蓝光币
272 枚
贡献
0 点
发表于 2019-11-7 09:37:20 | 显示全部楼层
2 R% w3 ]. Z$ M) y* t( ^
这东西我收了!谢谢楼主!中国高清电影网真好!
VIP会员免费任意下载本站所有资源!---点击开通
回复

使用道具 举报

懒得打字嘛,点击右侧快捷回复 【右侧内容,后台自定义】
您需要登录后才可以回帖 登录 | 立即注册

本版积分规则

QQ|Archiver|手机版|小黑屋| 中国高清网 |网站地图

GMT+8, 2019-11-22 05:49 , Processed in 0.314698 second(s), 37 queries .

Powered by HDchina X3.4

Copyright 2017-2019©HDchina.All right reserved

返回顶部 联系我们