查看: 10|回复: 0

[动作片] 机关枪凯利 Machine-Gun.Kelly.1958.1080p.AMZN.WEBRip.DDP2.0.x264-NTb 5.89GB

[复制链接]

 成长值: 3210

级别:资源管理组

注册时间
2017-10-20
最后登录
2019-11-20
听众
1
收听
0
主题
87254
蓝光币
63212 枚
贡献
11613 点
发表于 2019-11-6 15:34:32 | 显示全部楼层 |阅读模式
机关枪凯利 Machine-Gun.Kelly.1958.1080p.AMZN.WEBRip.DDP2.0.x264-NTb 5.89GB-1.png

译  名 机关枪凯利
片  名 Machine-Gun Kelly
年  代 1958
产  地 美国
类  别 行动 / 列传 / 历史 / 犯罪
语  言 英语
上映日期 1959-02-13
IMDb评分  6.2/10 from 1126 users
IMDb链接  https://www.imdb.com/title/tt0051887
豆瓣评分 0/10 from 0 users
豆瓣链接 https://movie.douban.com/subject/2159237/
片  长 80 分钟
导  演 罗杰·科曼 Roger Corman
主  演 查尔斯·布朗森 Charles Bronson


标  签 黑帮 | 列传 | 美国电影 | 罗杰·科曼 | RogerCorman | 美国 | 行动 | ギャング映画 機関銃ケリー

简  介  

  暂无相关剧情先容
  1. Video
  2. ID                                       : 1
  3. Format                                   : AVC
  4. Format/Info                              : Advanced Video Codec
  5. Format profile                           : High@L4
  6. Format settings                          : CABAC / 4 Ref Frames
  7. Format settings, CABAC                   : Yes
  8. Format settings, Reference frames        : 4 frames
  9. Codec ID                                 : V_MPEG4/ISO/AVC
  10. Duration                                 : 1 h 23 min
  11. Bit rate mode                            : Constant
  12. Bit rate                                 : 10 000 kb/s
  13. Width                                    : 1 440 pixels
  14. Height                                   : 1 080 pixels
  15. Display aspect ratio                     : 4:3
  16. Frame rate mode                          : Constant
  17. Frame rate                               : 23.976 (24000/1001) FPS
  18. Color space                              : YUV
  19. Chroma subsampling                       : 4:2:0
  20. Bit depth                                : 8 bits
  21. Scan type                                : Progressive
  22. Bits/(Pixel*Frame)                       : 0.268
  23. Stream size                              : 5.76 GiB (98%)
  24. Default                                  : Yes
  25. Forced                                   : No
  26. Color range                              : Limited
  27. Color primaries                          : BT.709
  28. Transfer characteristics                 : BT.709
  29. Matrix coefficients                      : BT.709

  30. Audio
  31. ID                                       : 2
  32. Format                                   : E-AC-3
  33. Format/Info                              : Enhanced AC-3
  34. Commercial name                          : Dolby Digital Plus
  35. Codec ID                                 : A_EAC3
  36. Duration                                 : 1 h 23 min
  37. Bit rate mode                            : Constant
  38. Bit rate                                 : 224 kb/s
  39. Channel(s)                               : 2 channels
  40. Channel layout                           : L R
  41. Sampling rate                            : 48.0 kHz
  42. Frame rate                               : 31.250 FPS (1536 SPF)
  43. Compression mode                         : Lossy
  44. Stream size                              : 134 MiB (2%)
  45. Language                                 : English
  46. Service kind                             : Complete Main
  47. Default                                  : Yes
  48. Forced                                   : No

  49. Text #1
  50. ID                                       : 3
  51. Format                                   : UTF-8
  52. Codec ID                                 : S_TEXT/UTF8
  53. Codec ID/Info                            : UTF-8 Plain Text
  54. Duration                                 : 1 h 17 min
  55. Bit rate                                 : 71 b/s
  56. Count of elements                        : 1286
  57. Stream size                              : 40.2 KiB (0%)
  58. Language                                 : English
  59. Default                                  : No
  60. Forced                                   : No

  61. Text #2
  62. ID                                       : 4
  63. Format                                   : UTF-8
  64. Codec ID                                 : S_TEXT/UTF8
  65. Codec ID/Info                            : UTF-8 Plain Text
  66. Duration                                 : 1 h 23 min
  67. Bit rate                                 : 71 b/s
  68. Count of elements                        : 1426
  69. Stream size                              : 43.3 KiB (0%)
  70. Title                                    : SDH
  71. Language                                 : English
  72. Default                                  : No
  73. Forced                                   : No
复制代码

机关枪凯利 Machine-Gun.Kelly.1958.1080p.AMZN.WEBRip.DDP2.0.x264-NTb 5.89GB-2.png 机关枪凯利 Machine-Gun.Kelly.1958.1080p.AMZN.WEBRip.DDP2.0.x264-NTb 5.89GB-3.png 机关枪凯利 Machine-Gun.Kelly.1958.1080p.AMZN.WEBRip.DDP2.0.x264-NTb 5.89GB-4.png







VIP会员免费任意下载本站所有资源!---点击开通
回复

使用道具 举报

懒得打字嘛,点击右侧快捷回复 【右侧内容,后台自定义】
您需要登录后才可以回帖 登录 | 立即注册

本版积分规则

QQ|Archiver|手机版|小黑屋| 中国高清网 |网站地图

GMT+8, 2019-11-20 22:09 , Processed in 0.227480 second(s), 37 queries .

Powered by HDchina X3.4

Copyright 2017-2019©HDchina.All right reserved

返回顶部 联系我们