查看: 18|回复: 0

[纪录片] 寻找弗拉门戈之神 Paco.De.Lucia.A.Journey.2014.SPANISH.1080p.NF.WEBRip.DDP5.1.x264-monkee 4.44GB

[复制链接]

 成长值: 3160

级别:资源管理组

注册时间
2017-10-20
最后登录
2019-11-15
听众
1
收听
0
主题
86768
蓝光币
61946 枚
贡献
11126 点
发表于 2019-11-6 15:33:40 | 显示全部楼层 |阅读模式
寻觅弗拉门戈之神 Paco.De.Lucia.A.Journey.2014.SPANISH.1080p.NF.WEBRip.DDP5.1.x264-monkee 4.44GB-1.png

译  名 寻觅弗拉门戈之神
片  名 Paco de Lucía: la búsqueda
年  代 2014
产  地 西班牙
类  别 记载片
语  言 西班牙语
上映日期 2014-09-20(圣塞巴斯蒂安电影节) / 2014-10-24(西班牙) / 2015-03-07(迈阿密国际电影节)
IMDb评分  7.7/10 from 207 users
IMDb链接  https://www.imdb.com/title/tt4040896
豆瓣评分 0/10 from 0 users
豆瓣链接 https://movie.douban.com/subject/26333182/
片  长 95分钟(西班牙)
导  演 Curro Sánchez
编  剧 Casilda Sánchez / Curro Sánchez
主  演 Paco de Lucía
       Pepe de Lucía
       Alberto Gavira
       Ricardo Modrego
       Pira?a


标  签 西班牙 | 记载片 | 2014 | 西班牙电影 | 音乐 | —记载片— | 西班牙语电影 | 记载

简  介  

  这部记载片由被称为“弗拉门戈之神”的吉他演奏家Paco de Lucía之子执导,不但触及他人生中的严重转折,亦深入他私人和家庭生活的各个方面直至他居住在马洛卡岛专心创作的晚年,很多段落由Paco de Lucía本人论述,他满怀深情地回忆了自己的童年、人生履历、欢乐和恐惧。

获奖情况  

  第29届西班牙戈雅奖(2015)
  最好新人导演(提名) 古洛·桑切斯
  最好剪辑(提名) José M. G. Moyano
  最好记载片
  1. Video
  2. ID                                       : 1
  3. Format                                   : AVC
  4. Format/Info                              : Advanced Video Codec
  5. Format profile                           : High@L4
  6. Format settings                          : CABAC / 3 Ref Frames
  7. Format settings, CABAC                   : Yes
  8. Format settings, Reference frames        : 3 frames
  9. Codec ID                                 : V_MPEG4/ISO/AVC
  10. Duration                                 : 1 h 29 min
  11. Bit rate mode                            : Variable
  12. Bit rate                                 : 6 490 kb/s
  13. Maximum bit rate                         : 9 735 kb/s
  14. Width                                    : 1 920 pixels
  15. Height                                   : 1 080 pixels
  16. Display aspect ratio                     : 16:9
  17. Frame rate mode                          : Constant
  18. Frame rate                               : 25.000 FPS
  19. Color space                              : YUV
  20. Chroma subsampling                       : 4:2:0
  21. Bit depth                                : 8 bits
  22. Scan type                                : Progressive
  23. Bits/(Pixel*Frame)                       : 0.125
  24. Stream size                              : 3.96 GiB (89%)
  25. Writing library                          : x264 core 118
  26. Encoding settings                        : cabac=1 / ref=3 / deblock=1:0:0 / analyse=0x1:0x111 / me=umh / subme=10 / psy=1 / psy_rd=1.00:0.00 / mixed_ref=1 / me_range=24 / chroma_me=1 / trellis=2 / 8x8dct=0 / cqm=0 / deadzone=21,11 / fast_pskip=1 / chroma_qp_offset=-2 / threads=8 / sliced_threads=0 / nr=0 / decimate=1 / interlaced=0 / bluray_compat=0 / constrained_intra=0 / bframes=2 / b_pyramid=0 / b_adapt=2 / b_bias=0 / direct=3 / weightb=1 / open_gop=0 / weightp=2 / keyint=50 / keyint_min=26 / scenecut=0 / intra_refresh=0 / rc_lookahead=0 / rc=2pass / mbtree=1 / bitrate=6490 / ratetol=1.0 / qcomp=0.50 / qpmin=6 / qpmax=51 / qpstep=4 / cplxblur=20.0 / qblur=0.5 / vbv_maxrate=9735 / vbv_bufsize=12980 / nal_hrd=vbr / ip_ratio=1.40 / aq=1:1.00
  27. Default                                  : Yes
  28. Forced                                   : No
  29. Statistics Tags Issue                    : mkvmerge v37.0.0 (\'Leave It\') 64-bit 2019-10-01 22:02:21 / mkvmerge v37.0.0 (\'Leave It\') 64-bit 2019-10-01 22:02:21 / UTC 2018-06-03 16:15:48
  30. FromStats_BitRate                        : 6471854
  31. FromStats_Duration                       : 01:29:25.280000000
  32. FromStats_FrameCount                     : 134132
  33. FromStats_StreamSize                     : 4340413884

  34. Audio
  35. ID                                       : 2
  36. Format                                   : E-AC-3
  37. Format/Info                              : Enhanced AC-3
  38. Commercial name                          : Dolby Digital Plus
  39. Codec ID                                 : A_EAC3
  40. Duration                                 : 1 h 29 min
  41. Bit rate mode                            : Constant
  42. Bit rate                                 : 640 kb/s
  43. Channel(s)                               : 6 channels
  44. Channel layout                           : L R C LFE Ls Rs
  45. Sampling rate                            : 48.0 kHz
  46. Frame rate                               : 31.250 FPS (1536 SPF)
  47. Compression mode                         : Lossy
  48. Stream size                              : 409 MiB (9%)
  49. Title                                    : Spanish
  50. Language                                 : Spanish
  51. Service kind                             : Complete Main
  52. Default                                  : Yes
  53. Forced                                   : No
  54. Encoded date                             : UTC 2018-06-03 16:15:48
  55. Statistics Tags Issue                    : mkvmerge v37.0.0 (\'Leave It\') 64-bit 2019-10-01 22:02:21 / mkvmerge v37.0.0 (\'Leave It\') 64-bit 2019-10-01 22:02:21 / UTC 2018-06-03 16:15:48
  56. FromStats_BitRate                        : 640000
  57. FromStats_Duration                       : 01:29:25.664000000
  58. FromStats_FrameCount                     : 167677
  59. FromStats_StreamSize                     : 429253120

  60. Text
  61. ID                                       : 3
  62. Format                                   : UTF-8
  63. Codec ID                                 : S_TEXT/UTF8
  64. Codec ID/Info                            : UTF-8 Plain Text
  65. Title                                    : Japanese
  66. Language                                 : Japanese
  67. Default                                  : No
  68. Forced                                   : No
  69. Statistics Tags Issue                    : mkvmerge v37.0.0 (\'Leave It\') 64-bit 2019-10-01 22:02:21 / mkvmerge v37.0.0 (\'Leave It\') 64-bit 2019-10-01 22:02:21 / UTC 2018-06-03 16:15:48
  70. FromStats_BitRate                        : 76
  71. FromStats_Duration                       : 01:26:22.360000000
  72. FromStats_FrameCount                     : 1029
  73. FromStats_StreamSize                     : 49352
复制代码

寻觅弗拉门戈之神 Paco.De.Lucia.A.Journey.2014.SPANISH.1080p.NF.WEBRip.DDP5.1.x264-monkee 4.44GB-2.png 寻觅弗拉门戈之神 Paco.De.Lucia.A.Journey.2014.SPANISH.1080p.NF.WEBRip.DDP5.1.x264-monkee 4.44GB-3.png 寻觅弗拉门戈之神 Paco.De.Lucia.A.Journey.2014.SPANISH.1080p.NF.WEBRip.DDP5.1.x264-monkee 4.44GB-4.png







VIP会员免费任意下载本站所有资源!---点击开通
回复

使用道具 举报

懒得打字嘛,点击右侧快捷回复 【右侧内容,后台自定义】
您需要登录后才可以回帖 登录 | 立即注册

本版积分规则

QQ|Archiver|手机版|小黑屋| 中国高清网 |网站地图 

GMT+8, 2019-11-15 20:10 , Processed in 0.251506 second(s), 37 queries .

Powered by HDchina X3.4

Copyright 2017-2019©HDchina.All right reserved

返回顶部 联系我们