查看: 56|回复: 1

[剧情片] 婚礼之后/你愿意嫁给我老公吗? After.The.Wedding.2019.1080p.BluRay.x264-AAA 7.65GB

[复制链接]

 成长值: 3230

级别:资源管理组

注册时间
2017-10-20
最后登录
2019-11-21
听众
1
收听
0
主题
87390
蓝光币
63614 枚
贡献
11749 点
发表于 2019-11-6 15:31:19 | 显示全部楼层 |阅读模式
婚礼以后/你愿意嫁给我老公吗? After.The.Wedding.2019.1080p.BluRay.x264-AAA 7.65GB-1.png

译  名 婚礼以后 / 你愿意嫁给我老公吗?(台)
片  名 After the Wedding
年  代 2019
产  地 美国
类  别 剧情
语  言 英语
上映日期 2019-01-24(圣丹斯电影节) / 2019-08-09(美国)
IMDb评分  6.0/10 from 1082 users
IMDb链接  https://www.imdb.com/title/tt7985692
豆瓣评分 6.9/10 from 61 users
豆瓣链接 https://movie.douban.com/subject/30142420/
片  长 110分钟
导  演 巴特·弗伦德里希 Bart Freundlich
编  剧 巴特·弗伦德里希 Bart Freundlich / 苏珊娜·比尔 Susanne Bier / 安诺斯·托马斯·延森 Anders Thomas Jensen
主  演 朱丽安·摩尔 Julianne Moore
       米歇尔·威廉姆斯 Michelle Williams
       比利·克鲁德普 Billy Crudup
       威尔·切斯 Will Chase
       桃乐丝·麦卡锡 Doris McCarthy
       艾比·奎因 Abby Quinn
       伊萨·戴维斯 Eisa Davis
       艾奇·罗伯逊 Azhy Robertson
       亚历克斯·克兰默 Alex Cranmer
       苏珊·布莱克威尔 Susan Blackwell
       Alex Esola
       Mackenzie Owens
       Eric D. Hill Jr.
       Jeff Kim
       Ron Simons
       Ruth Barrie


标  签 美国 | JulianneMoore | 剧情 | 2019 | MichelleWilliams | 朱丽安·摩尔 | 圣丹斯电影节 | 电影

简  介  

  朱丽安·摩尔将出演新版苏珊娜·比尔作品[婚礼以后]。这部新片由咩姨老公巴特·弗伦德里希执导,故事将重新构建为两位女主在纽约发生的故事(原作俩男主是麦斯·米科尔森和罗夫·拉斯加德[doge])。摩尔将饰演成功经营媒体公司的女富豪特丽莎·杨,碰到伊莎贝尔以后,她的生活发生了意想不到的改变。伊莎贝尔在印度加尔各答经营一家孤儿院,她来到美国寻觅一位捐助者。Cornerstone Films将在柏林电影节的欧洲电影市场买卖这一项目,并于今春起头启动。
  1. Video
  2. ID                                       : 1
  3. Format                                   : AVC
  4. Format/Info                              : Advanced Video Codec
  5. Format profile                           : High@L4
  6. Format settings                          : CABAC / 5 Ref Frames
  7. Format settings, CABAC                   : Yes
  8. Format settings, Reference frames        : 5 frames
  9. Codec ID                                 : V_MPEG4/ISO/AVC
  10. Duration                                 : 1 h 52 min
  11. Bit rate                                 : 8 256 kb/s
  12. Width                                    : 1 920 pixels
  13. Height                                   : 808 pixels
  14. Display aspect ratio                     : 2.40:1
  15. Frame rate mode                          : Constant
  16. Frame rate                               : 23.976 (24000/1001) FPS
  17. Color space                              : YUV
  18. Chroma subsampling                       : 4:2:0
  19. Bit depth                                : 8 bits
  20. Scan type                                : Progressive
  21. Bits/(Pixel*Frame)                       : 0.222
  22. Stream size                              : 6.47 GiB (85%)
  23. Title                                    : After.The.Wedding.2019.1080p.BluRay.x264-AAA
  24. Writing library                          : x264 core 157 r2969 d4099dd
  25. Encoding settings                        : cabac=1 / ref=5 / deblock=1:0:0 / analyse=0x3:0x113 / me=umh / subme=8 / psy=1 / psy_rd=1.00:0.00 / mixed_ref=1 / me_range=16 / chroma_me=1 / trellis=1 / 8x8dct=1 / cqm=0 / deadzone=21,11 / fast_pskip=1 / chroma_qp_offset=-2 / threads=16 / lookahead_threads=2 / sliced_threads=0 / nr=0 / decimate=1 / interlaced=0 / bluray_compat=0 / constrained_intra=0 / bframes=3 / b_pyramid=2 / b_adapt=2 / b_bias=0 / direct=3 / weightb=1 / open_gop=0 / weightp=2 / keyint=240 / keyint_min=23 / scenecut=40 / intra_refresh=0 / rc_lookahead=50 / rc=2pass / mbtree=1 / bitrate=8256 / ratetol=1.0 / qcomp=0.60 / qpmin=0 / qpmax=69 / qpstep=4 / cplxblur=20.0 / qblur=0.5 / ip_ratio=1.40 / aq=1:1.00
  26. Default                                  : Yes
  27. Forced                                   : No

  28. Audio
  29. ID                                       : 2
  30. Format                                   : DTS
  31. Format/Info                              : Digital Theater Systems
  32. Codec ID                                 : A_DTS
  33. Duration                                 : 1 h 52 min
  34. Bit rate mode                            : Constant
  35. Bit rate                                 : 1 509 kb/s
  36. Channel(s)                               : 6 channels
  37. Channel layout                           : C L R Ls Rs LFE
  38. Sampling rate                            : 48.0 kHz
  39. Frame rate                               : 93.750 FPS (512 SPF)
  40. Bit depth                                : 24 bits
  41. Compression mode                         : Lossy
  42. Stream size                              : 1.18 GiB (15%)
  43. Title                                    : Eng
  44. Language                                 : English
  45. Default                                  : Yes
  46. Forced                                   : No

  47. Menu
  48. 00:00:00.000                             : en:00:00:00.000
  49. 00:08:05.026                             : en:00:08:05.026
  50. 00:15:13.996                             : en:00:15:13.996
  51. 00:22:06.992                             : en:00:22:06.992
  52. 00:30:10.642                             : en:00:30:10.642
  53. 00:38:53.581                             : en:00:38:53.581
  54. 00:47:39.690                             : en:00:47:39.690
  55. 00:53:23.075                             : en:00:53:23.075
  56. 01:01:21.219                             : en:01:01:21.219
  57. 01:03:27.012                             : en:01:03:27.012
  58. 01:08:04.497                             : en:01:08:04.497
  59. 01:13:56.057                             : en:01:13:56.057
  60. 01:17:27.518                             : en:01:17:27.518
  61. 01:23:40.307                             : en:01:23:40.307
  62. 01:31:48.461                             : en:01:31:48.461
  63. 01:38:51.968                             : en:01:38:51.968
复制代码

婚礼以后/你愿意嫁给我老公吗? After.The.Wedding.2019.1080p.BluRay.x264-AAA 7.65GB-2.png







VIP会员免费任意下载本站所有资源!---点击开通
回复

使用道具 举报

级别:群众演员 Lv.3

注册时间
2019-10-27
最后登录
2019-11-21
听众
0
收听
0
主题
0
蓝光币
40 枚
贡献
0 点
发表于 2019-11-6 22:24:38 | 显示全部楼层
楼主发贴辛苦了,谢谢楼主分享!我觉得中国高清电影网是注册对了!
VIP会员免费任意下载本站所有资源!---点击开通
回复

使用道具 举报

懒得打字嘛,点击右侧快捷回复 【右侧内容,后台自定义】
您需要登录后才可以回帖 登录 | 立即注册

本版积分规则

QQ|Archiver|手机版|小黑屋| 中国高清网 |网站地图

GMT+8, 2019-11-22 02:10 , Processed in 0.247583 second(s), 37 queries .

Powered by HDchina X3.4

Copyright 2017-2019©HDchina.All right reserved

返回顶部 联系我们