查看: 22|回复: 0

[恐怖片] 恐怖镐 Pickaxe.2019.1080p.WEB-DL.DD2.0.H264-FGT 2.54GB

[复制链接]

 成长值: 3210

级别:资源管理组

注册时间
2017-10-20
最后登录
2019-11-20
听众
1
收听
0
主题
87221
蓝光币
63022 枚
贡献
11580 点
发表于 2019-11-6 15:30:30 | 显示全部楼层 |阅读模式
可骇镐 Pickaxe.2019.1080p.WEB-DL.DD2.0.H264-FGT 2.54GB-1.png

译  名 可骇镐
片  名 Pickaxe
年  代 2019
产  地 美国
类  别 可骇
语  言 英语
上映日期 2019-11-06(美国)
IMDb链接  https://www.imdb.com/title/tt10793634
豆瓣评分 0/10 from 0 users
豆瓣链接 https://movie.douban.com/subject/34849299/
片  长 87分钟
导  演 Jeremy Sumrall
编  剧 Jeremy Sumrall
主  演 Cory W. Ahre
       A·邁克爾·鮑德溫 A. Michael Baldwin
       Keefer Barlow
       Drew Brown


简  介  

  1982: The survivors of a series of brutal killings in a small town thought mass murderer Alex Black was dead and buried after the townspeople put an end to him. But teenagers experimenting with the occult awaken the monster from his grave and he begins another rampage of terror with his favorite tool, a pickaxe. Only those who have faced him before have any chance of stopping Alex Black once and for all.
  1. Video
  2. ID                                       : 1
  3. Format                                   : AVC
  4. Format/Info                              : Advanced Video Codec
  5. Format profile                           : High@L4
  6. Format settings                          : CABAC / 5 Ref Frames
  7. Format settings, CABAC                   : Yes
  8. Format settings, Reference frames        : 5 frames
  9. Codec ID                                 : V_MPEG4/ISO/AVC
  10. Duration                                 : 1 h 16 min
  11. Bit rate                                 : 4 541 kb/s
  12. Width                                    : 1 920 pixels
  13. Height                                   : 794 pixels
  14. Display aspect ratio                     : 2.40:1
  15. Frame rate mode                          : Constant
  16. Frame rate                               : 23.976 FPS
  17. Color space                              : YUV
  18. Chroma subsampling                       : 4:2:0
  19. Bit depth                                : 8 bits
  20. Scan type                                : Progressive
  21. Bits/(Pixel*Frame)                       : 0.124
  22. Stream size                              : 2.44 GiB (96%)
  23. Title                                    : Pickaxe.2019.1080p.WEB-DL.DD2.0.H264-FGT
  24. Language                                 : English
  25. Default                                  : Yes
  26. Forced                                   : No
  27. Color range                              : Limited
  28. Color primaries                          : BT.709
  29. Transfer characteristics                 : BT.709
  30. Matrix coefficients                      : BT.709

  31. Audio
  32. ID                                       : 2
  33. Format                                   : AC-3
  34. Format/Info                              : Audio Coding 3
  35. Commercial name                          : Dolby Digital
  36. Codec ID                                 : A_AC3
  37. Duration                                 : 1 h 16 min
  38. Bit rate mode                            : Constant
  39. Bit rate                                 : 192 kb/s
  40. Channel(s)                               : 2 channels
  41. Channel layout                           : L R
  42. Sampling rate                            : 48.0 kHz
  43. Frame rate                               : 31.250 FPS (1536 SPF)
  44. Bit depth                                : 16 bits
  45. Compression mode                         : Lossy
  46. Stream size                              : 106 MiB (4%)
  47. Title                                    : Pickaxe.2019.1080p.WEB-DL.DD2.0.H264-FGT
  48. Language                                 : English
  49. Service kind                             : Complete Main
  50. Default                                  : Yes
  51. Forced                                   : No

  52. Text
  53. ID                                       : 3
  54. Format                                   : UTF-8
  55. Codec ID                                 : S_TEXT/UTF8
  56. Codec ID/Info                            : UTF-8 Plain Text
  57. Duration                                 : 1 h 14 min
  58. Bit rate                                 : 94 b/s
  59. Count of elements                        : 1555
  60. Stream size                              : 51.5 KiB (0%)
  61. Language                                 : English
  62. Default                                  : Yes
  63. Forced                                   : No

  64. Menu
  65. 00:00:00.000                             : en:1
  66. 00:12:14.901                             : en:2
  67. 00:26:37.763                             : en:3
  68. 00:37:42.719                             : en:4
  69. 00:50:01.332                             : en:5
  70. 01:01:36.317                             : en:6
  71. 01:14:08.484                             : en:7
复制代码

可骇镐 Pickaxe.2019.1080p.WEB-DL.DD2.0.H264-FGT 2.54GB-2.png 可骇镐 Pickaxe.2019.1080p.WEB-DL.DD2.0.H264-FGT 2.54GB-3.png 可骇镐 Pickaxe.2019.1080p.WEB-DL.DD2.0.H264-FGT 2.54GB-4.png







VIP会员免费任意下载本站所有资源!---点击开通
回复

使用道具 举报

懒得打字嘛,点击右侧快捷回复 【右侧内容,后台自定义】
您需要登录后才可以回帖 登录 | 立即注册

本版积分规则

QQ|Archiver|手机版|小黑屋| 中国高清网 |网站地图

GMT+8, 2019-11-20 09:57 , Processed in 0.232482 second(s), 37 queries .

Powered by HDchina X3.4

Copyright 2017-2019©HDchina.All right reserved

返回顶部 联系我们