查看: 24|回复: 0

[惊悚片] 圣诞恶魔 Christmas.Evil.1980.RESTORED.1080p.BluRay.x264.DTS-FGT 8.07GB

[复制链接]

 成长值: 3160

级别:资源管理组

注册时间
2017-10-20
最后登录
2019-11-11
听众
1
收听
0
主题
86761
蓝光币
61861 枚
贡献
11119 点
发表于 2019-11-6 15:27:48 | 显示全部楼层 |阅读模式
圣诞恶魔 Christmas.Evil.1980.RESTORED.1080p.BluRay.x264.DTS-FGT 8.07GB-1.png

译  名 圣诞恶魔 / Christmas Evil
片  名 You Better Watch Out
年  代 1980
产  地 美国
类  别 惊悚 / 可骇
语  言 英语
上映日期 1985-12-21
IMDb评分  5.5/10 from 4953 users
IMDb链接  http://www.imdb.com/title/tt0081793
豆瓣评分 5.9/10 from 54 users
豆瓣链接 https://movie.douban.com/subject/1947278/
片  长 100 分钟
导  演 Lewis Jackson
主  演 Brandon Maggart
      Jeffrey DeMunn


标  签 可骇 | 惊悚 | Cult | 圣诞节 | 儿童 | 美国电影 | 美国 | 1980

简  介  

  暂无相关剧情先容

  1. Video
  2. ID                                       : 1
  3. Format                                   : AVC
  4. Format/Info                              : Advanced Video Codec
  5. Format profile                           : High@L4
  6. Format settings                          : CABAC / 4 Ref Frames
  7. Format settings, CABAC                   : Yes
  8. Format settings, Reference frames        : 4 frames
  9. Codec ID                                 : V_MPEG4/ISO/AVC
  10. Duration                                 : 1 h 34 min
  11. Bit rate                                 : 11.5 Mb/s
  12. Width                                    : 1 920 pixels
  13. Height                                   : 1 080 pixels
  14. Display aspect ratio                     : 16:9
  15. Frame rate mode                          : Constant
  16. Frame rate                               : 23.976 (24000/1001) FPS
  17. Color space                              : YUV
  18. Chroma subsampling                       : 4:2:0
  19. Bit depth                                : 8 bits
  20. Scan type                                : Progressive
  21. Bits/(Pixel*Frame)                       : 0.231
  22. Stream size                              : 7.56 GiB (94%)
  23. Title                                    : Christmas.Evil.1980.RESTORED.1080p.BluRay.x264.DTS-FGT
  24. Writing library                          : x264 core 148 r2795M aaa9aa8
  25. Encoding settings                        : cabac=1 / ref=4 / deblock=1:-2:-2 / analyse=0x3:0x113 / me=umh / subme=9 / psy=1 / psy_rd=1.00:0.15 / mixed_ref=1 / me_range=16 / chroma_me=1 / trellis=2 / 8x8dct=1 / cqm=0 / deadzone=21,11 / fast_pskip=1 / chroma_qp_offset=-3 / threads=24 / lookahead_threads=3 / sliced_threads=0 / nr=0 / decimate=1 / interlaced=0 / bluray_compat=0 / constrained_intra=0 / bframes=3 / b_pyramid=2 / b_adapt=1 / b_bias=0 / direct=3 / weightb=1 / open_gop=0 / weightp=2 / keyint=250 / keyint_min=25 / scenecut=40 / intra_refresh=0 / rc_lookahead=50 / rc=2pass / mbtree=1 / bitrate=11500 / ratetol=1.0 / qcomp=0.60 / qpmin=0 / qpmax=69 / qpstep=4 / cplxblur=20.0 / qblur=0.5 / vbv_maxrate=31250 / vbv_bufsize=31250 / nal_hrd=none / filler=0 / ip_ratio=1.40 / aq=1:1.00
  26. Language                                 : English
  27. Default                                  : Yes
  28. Forced                                   : No

  29. Audio
  30. ID                                       : 2
  31. Format                                   : DTS
  32. Format/Info                              : Digital Theater Systems
  33. Codec ID                                 : A_DTS
  34. Duration                                 : 1 h 34 min
  35. Bit rate mode                            : Constant
  36. Bit rate                                 : 768 kb/s
  37. Channel(s)                               : 1 channel
  38. Channel layout                           : C
  39. Sampling rate                            : 48.0 kHz
  40. Frame rate                               : 93.750 FPS (512 SPF)
  41. Bit depth                                : 24 bits
  42. Compression mode                         : Lossy
  43. Stream size                              : 517 MiB (6%)
  44. Title                                    : Christmas.Evil.1980.RESTORED.1080p.BluRay.x264.DTS-FGT
  45. Language                                 : English
  46. Default                                  : Yes
  47. Forced                                   : No

  48. Text
  49. ID                                       : 3
  50. Format                                   : UTF-8
  51. Codec ID                                 : S_TEXT/UTF8
  52. Codec ID/Info                            : UTF-8 Plain Text
  53. Duration                                 : 1 h 30 min
  54. Bit rate                                 : 30 b/s
  55. Count of elements                        : 589
  56. Stream size                              : 20.2 KiB (0%)
  57. Language                                 : English
  58. Default                                  : Yes
  59. Forced                                   : No

  60. Menu
  61. 00:00:00.000                             : en:Chapter 01
  62. 00:19:37.509                             : en:Chapter 02
  63. 00:33:00.353                             : en:Chapter 03
  64. 00:52:14.214                             : en:Chapter 04
  65. 01:09:09.353                             : en:Chapter 05
  66. 01:26:07.787                             : en:Chapter 06
复制代码

152812zpp6xz8pnfak9t8l.png 圣诞恶魔 Christmas.Evil.1980.RESTORED.1080p.BluRay.x264.DTS-FGT 8.07GB-3.png 圣诞恶魔 Christmas.Evil.1980.RESTORED.1080p.BluRay.x264.DTS-FGT 8.07GB-4.png







VIP会员免费任意下载本站所有资源!---点击开通
回复

使用道具 举报

懒得打字嘛,点击右侧快捷回复 【右侧内容,后台自定义】
您需要登录后才可以回帖 登录 | 立即注册

本版积分规则

QQ|Archiver|手机版|小黑屋| 中国高清网 |网站地图 

GMT+8, 2019-11-15 11:01 , Processed in 0.236331 second(s), 37 queries .

Powered by HDchina X3.4

Copyright 2017-2019©HDchina.All right reserved

返回顶部 联系我们