查看: 35|回复: 0

[剧情片] 加油站趣事大电影 Corner.Gas.The.Movie.2014.1080p.BluRay.x264-HANDJOB 5.57GB

[复制链接]

 成长值: 3230

级别:资源管理组

注册时间
2017-10-20
最后登录
2019-11-21
听众
1
收听
0
主题
87390
蓝光币
63614 枚
贡献
11749 点
发表于 2019-11-6 15:27:36 | 显示全部楼层 |阅读模式
加油站趣事大电影 Corner.Gas.The.Movie.2014.1080p.BluRay.x264-HANDJOB 5.57GB-1.png

译  名 加油站趣事大电影
片  名 Corner Gas: The Movie
年  代 2014
产  地 Canada
类  别 剧情 / 笑剧
语  言 英语
上映日期 2014-12-03
IMDb评分  6.7/10 from 1736 users
IMDb链接  https://www.imdb.com/title/tt3788052
豆瓣评分 0/10 from 0 users
豆瓣链接 https://movie.douban.com/subject/26282346/
片  长 90分钟
导  演 David Storey
编  剧 Brent Butt / Andrew Carr / Andrew Wreggitt
主  演 Brent Butt
       Gabrielle Miller
       Fred Ewanuick
       Eric Peterson
       Janet Wright
       Lorne Cardinal
       Tara Spencer-Nairn
       Nancy Robertson


标  签 笑剧 | 加拿大 | 2014 | WillSasso | GrahamGreene | EricPeterson | BrentButt | 6p

简  介  

  As the town of Dog River goes bankrupt the residents of the town must pack up and move out. However our favourite citizens make one last-ditch effort to save Dog River.
  1. Video
  2. ID                                       : 1
  3. Format                                   : AVC
  4. Format/Info                              : Advanced Video Codec
  5. Format profile                           : High@L4
  6. Format settings                          : CABAC / 4 Ref Frames
  7. Format settings, CABAC                   : Yes
  8. Format settings, Reference frames        : 4 frames
  9. Codec ID                                 : V_MPEG4/ISO/AVC
  10. Duration                                 : 1 h 35 min
  11. Bit rate                                 : 7 743 kb/s
  12. Width                                    : 1 920 pixels
  13. Height                                   : 1 036 pixels
  14. Display aspect ratio                     : 1.85:1
  15. Frame rate mode                          : Constant
  16. Frame rate                               : 23.976 (24000/1001) FPS
  17. Color space                              : YUV
  18. Chroma subsampling                       : 4:2:0
  19. Bit depth                                : 8 bits
  20. Scan type                                : Progressive
  21. Bits/(Pixel*Frame)                       : 0.162
  22. Stream size                              : 5.15 GiB (92%)
  23. Writing library                          : x264 core 157 r2935 545de2f
  24. Encoding settings                        : cabac=1 / ref=4 / deblock=1:-3:-3 / analyse=0x3:0x133 / me=umh / subme=11 / psy=1 / psy_rd=1.00:0.00 / mixed_ref=0 / me_range=32 / chroma_me=1 / trellis=2 / 8x8dct=1 / cqm=0 / deadzone=21,11 / fast_pskip=0 / chroma_qp_offset=-2 / threads=18 / lookahead_threads=1 / sliced_threads=0 / nr=0 / decimate=0 / interlaced=0 / bluray_compat=0 / constrained_intra=0 / bframes=16 / b_pyramid=2 / b_adapt=1 / b_bias=0 / direct=3 / weightb=1 / open_gop=0 / weightp=1 / keyint=240 / keyint_min=24 / scenecut=40 / intra_refresh=0 / rc_lookahead=30 / rc=crf / mbtree=1 / crf=19.0 / qcomp=0.70 / qpmin=0 / qpmax=69 / qpstep=4 / vbv_maxrate=62500 / vbv_bufsize=78125 / crf_max=0.0 / nal_hrd=none / filler=0 / ip_ratio=1.40 / aq=2:1.00
  25. Default                                  : Yes
  26. Forced                                   : No
  27. Color range                              : Limited
  28. Color primaries                          : BT.709
  29. Transfer characteristics                 : BT.709
  30. Matrix coefficients                      : BT.709

  31. Audio
  32. ID                                       : 2
  33. Format                                   : AC-3
  34. Format/Info                              : Audio Coding 3
  35. Commercial name                          : Dolby Digital
  36. Codec ID                                 : A_AC3
  37. Duration                                 : 1 h 35 min
  38. Bit rate mode                            : Constant
  39. Bit rate                                 : 640 kb/s
  40. Channel(s)                               : 6 channels
  41. Channel layout                           : L R C LFE Ls Rs
  42. Sampling rate                            : 48.0 kHz
  43. Frame rate                               : 31.250 FPS (1536 SPF)
  44. Bit depth                                : 16 bits
  45. Compression mode                         : Lossy
  46. Stream size                              : 436 MiB (8%)
  47. Language                                 : English
  48. Service kind                             : Complete Main
  49. Default                                  : Yes
  50. Forced                                   : No

  51. Text
  52. ID                                       : 3
  53. Format                                   : UTF-8
  54. Codec ID                                 : S_TEXT/UTF8
  55. Codec ID/Info                            : UTF-8 Plain Text
  56. Duration                                 : 1 h 34 min
  57. Bit rate                                 : 95 b/s
  58. Count of elements                        : 2124
  59. Stream size                              : 66.3 KiB (0%)
  60. Language                                 : English
  61. Default                                  : No
  62. Forced                                   : No

  63. Menu
  64. 00:00:00.000                             : :Chapter 1
  65. 00:09:07.338                             : :Chapter 2
  66. 00:18:06.419                             : :Chapter 3
  67. 00:28:33.754                             : :Chapter 4
  68. 00:38:10.872                             : :Chapter 5
  69. 00:48:45.923                             : :Chapter 6
  70. 01:00:33.672                             : :Chapter 7
  71. 01:09:17.654                             : :Chapter 8
  72. 01:17:54.879                             : :Chapter 9
  73. 01:27:16.732                             : :Chapter 10
复制代码

加油站趣事大电影 Corner.Gas.The.Movie.2014.1080p.BluRay.x264-HANDJOB 5.57GB-2.png 152654gebptlbkpebi7eje.png 加油站趣事大电影 Corner.Gas.The.Movie.2014.1080p.BluRay.x264-HANDJOB 5.57GB-4.png







VIP会员免费任意下载本站所有资源!---点击开通
回复

使用道具 举报

懒得打字嘛,点击右侧快捷回复 【右侧内容,后台自定义】
您需要登录后才可以回帖 登录 | 立即注册

本版积分规则

QQ|Archiver|手机版|小黑屋| 中国高清网 |网站地图

GMT+8, 2019-11-22 02:24 , Processed in 0.232746 second(s), 37 queries .

Powered by HDchina X3.4

Copyright 2017-2019©HDchina.All right reserved

返回顶部 联系我们