查看: 24|回复: 0

[剧情片] 孤魂泪影 Woman.in.Hiding.1950.1080p.BluRay.x264.DTS-FGT 8.38GB

[复制链接]

 成长值: 3140

级别:资源管理组

注册时间
2017-10-20
最后登录
2019-11-11
听众
1
收听
0
主题
86761
蓝光币
61615 枚
贡献
11119 点
发表于 7 天前 | 显示全部楼层 |阅读模式
孤魂泪影 Woman.in.Hiding.1950.1080p.BluRay.x264.DTS-FGT 8.38GB-1.png

译  名 孤魂泪影
片  名 Woman in Hiding
年  代 1950
产  地 美国
类  别 黑色电影
语  言 英语
上映日期 1950-01-06(美国)
IMDb评分  6.9/10 from 545 users
IMDb链接  http://www.imdb.com/title/tt0042052
豆瓣评分 0/10 from 0 users
豆瓣链接 https://movie.douban.com/subject/10834809/
导  演 Michael Gordon
编  剧 Oscar Saul
主  演 Ida Lupino
       Stephen McNally
       Howard Duff


标  签 (待下 | 黑色电影 | 美國 | 50s | 1950s | 1950 | 黑色電影 | 美国

简  介  

  Deborah Chandler's rejected suitor, Selden Clark, manages the factory of her father, who dies: did he fall or was he pushed? But charming Clark manages to win her over and marry her. On the honeymoon, Clark's former girl Patricia intervenes and opens Deborah's eyes, alas too late. Now Clark tries to kill Deborah. Believed dead by all but Clark, she flees. But drifter Keith Ramsey recognizes and follows her. Can she trust him? Can he believe her?
  1. Video
  2. ID                                       : 1
  3. Format                                   : AVC
  4. Format/Info                              : Advanced Video Codec
  5. Format profile                           : High@L4
  6. Format settings                          : CABAC / 4 Ref Frames
  7. Format settings, CABAC                   : Yes
  8. Format settings, Reference frames        : 4 frames
  9. Codec ID                                 : V_MPEG4/ISO/AVC
  10. Duration                                 : 1 h 32 min
  11. Bit rate                                 : 11.5 Mb/s
  12. Width                                    : 1 452 pixels
  13. Height                                   : 1 080 pixels
  14. Display aspect ratio                     : 4:3
  15. Frame rate mode                          : Constant
  16. Frame rate                               : 23.976 (24000/1001) FPS
  17. Color space                              : YUV
  18. Chroma subsampling                       : 4:2:0
  19. Bit depth                                : 8 bits
  20. Scan type                                : Progressive
  21. Bits/(Pixel*Frame)                       : 0.306
  22. Stream size                              : 7.41 GiB (88%)
  23. Title                                    : Woman.in.Hiding.1950.1080p.BluRay.x264.DTS-FGT
  24. Writing library                          : x264 core 148 r2795M aaa9aa8
  25. Encoding settings                        : cabac=1 / ref=4 / deblock=1:-2:-2 / analyse=0x3:0x113 / me=umh / subme=9 / psy=1 / psy_rd=1.00:0.15 / mixed_ref=1 / me_range=16 / chroma_me=1 / trellis=2 / 8x8dct=1 / cqm=0 / deadzone=21,11 / fast_pskip=1 / chroma_qp_offset=-3 / threads=24 / lookahead_threads=3 / sliced_threads=0 / nr=0 / decimate=1 / interlaced=0 / bluray_compat=0 / constrained_intra=0 / bframes=3 / b_pyramid=2 / b_adapt=1 / b_bias=0 / direct=3 / weightb=1 / open_gop=0 / weightp=2 / keyint=250 / keyint_min=25 / scenecut=40 / intra_refresh=0 / rc_lookahead=50 / rc=2pass / mbtree=1 / bitrate=11500 / ratetol=1.0 / qcomp=0.60 / qpmin=0 / qpmax=69 / qpstep=4 / cplxblur=20.0 / qblur=0.5 / vbv_maxrate=31250 / vbv_bufsize=31250 / nal_hrd=none / filler=0 / ip_ratio=1.40 / aq=1:1.00
  26. Language                                 : English
  27. Default                                  : Yes
  28. Forced                                   : No

  29. Audio
  30. ID                                       : 2
  31. Format                                   : DTS
  32. Format/Info                              : Digital Theater Systems
  33. Codec ID                                 : A_DTS
  34. Duration                                 : 1 h 32 min
  35. Bit rate mode                            : Constant
  36. Bit rate                                 : 1 509 kb/s
  37. Channel(s)                               : 2 channels
  38. Channel layout                           : L R
  39. Sampling rate                            : 48.0 kHz
  40. Frame rate                               : 93.750 FPS (512 SPF)
  41. Bit depth                                : 16 bits
  42. Compression mode                         : Lossy
  43. Stream size                              : 995 MiB (12%)
  44. Title                                    : Woman.in.Hiding.1950.1080p.BluRay.x264.DTS-FGT
  45. Language                                 : English
  46. Default                                  : Yes
  47. Forced                                   : No

  48. Text
  49. ID                                       : 3
  50. Format                                   : UTF-8
  51. Codec ID                                 : S_TEXT/UTF8
  52. Codec ID/Info                            : UTF-8 Plain Text
  53. Duration                                 : 1 h 30 min
  54. Bit rate                                 : 65 b/s
  55. Count of elements                        : 1319
  56. Stream size                              : 43.2 KiB (0%)
  57. Language                                 : English
  58. Default                                  : Yes
  59. Forced                                   : No

  60. Menu
  61. 00:00:00.000                             : en:Chapter 00
  62. 00:10:27.627                             : en:Chapter 01
  63. 00:22:54.623                             : en:Chapter 02
  64. 00:31:09.409                             : en:Chapter 03
  65. 00:44:01.930                             : en:Chapter 04
  66. 00:54:32.769                             : en:Chapter 05
  67. 01:04:44.589                             : en:Chapter 06
  68. 01:20:21.775                             : en:Chapter 07
复制代码

孤魂泪影 Woman.in.Hiding.1950.1080p.BluRay.x264.DTS-FGT 8.38GB-2.png 孤魂泪影 Woman.in.Hiding.1950.1080p.BluRay.x264.DTS-FGT 8.38GB-3.png 152354jcrzyr69goklri0z.png







VIP会员免费任意下载本站所有资源!---点击开通
回复

使用道具 举报

懒得打字嘛,点击右侧快捷回复 【右侧内容,后台自定义】
您需要登录后才可以回帖 登录 | 立即注册

本版积分规则

QQ|Archiver|手机版|小黑屋| 中国高清网 |网站地图 

GMT+8, 2019-11-13 17:31 , Processed in 0.218105 second(s), 37 queries .

Powered by HDchina X3.4

Copyright 2017-2019©HDchina.All right reserved

返回顶部 联系我们