查看: 14|回复: 0

[惊悚片] 杀机快感 Thrill.of.The.Kill.2006.1080p.AMZN.WEBRip.DDP5.1.x264-ABM 6.36GB

[复制链接]

 成长值: 3140

级别:资源管理组

注册时间
2017-10-20
最后登录
2019-11-11
听众
1
收听
0
主题
86761
蓝光币
61615 枚
贡献
11119 点
发表于 7 天前 | 显示全部楼层 |阅读模式
杀机快感 Thrill.of.The.Kill.2006.1080p.AMZN.WEBRip.DDP5.1.x264-ABM 6.36GB-1.png

译  名 杀机快感
片  名 Thrill of the Kill
年  代 2006
产  地 美国 / 加拿大
类  别 惊悚 / 可骇
语  言 英语
上映日期 2006-10-01
IMDb评分  4.9/10 from 330 users
IMDb链接  https://www.imdb.com/title/tt0819129
豆瓣评分 0/10 from 0 users
豆瓣链接 https://movie.douban.com/subject/4010942/
导  演 Richard Roy
主  演 Shiri Appleby
       Chris Potter


标  签 悬疑 | 美国 | 惊悚 | 电影 | 杀机快感

简  介  

  Brilliant New York crime author Graydon Jennings accepts to help Kelly Holden investigate her sister Allison's murder, which seems uncannily equal to one his anti-hero-lead character Carlton James's kills for the thrill. In the sisters' Vermont home, starting from her diary, they come up with a theory Senator Darren Hartford sent the murderer to keep his adultery covered up. The sting of the tale is in the tail, for several parties.(http://www.kan84.net/bdhd/btThrilloftheKill2006.html
  1. Video
  2. ID                                       : 1
  3. Format                                   : AVC
  4. Format/Info                              : Advanced Video Codec
  5. Format profile                           : High@L4
  6. Format settings                          : CABAC / 4 Ref Frames
  7. Format settings, CABAC                   : Yes
  8. Format settings, Reference frames        : 4 frames
  9. Codec ID                                 : V_MPEG4/ISO/AVC
  10. Duration                                 : 1 h 28 min
  11. Bit rate mode                            : Constant
  12. Bit rate                                 : 10 000 kb/s
  13. Width                                    : 1 920 pixels
  14. Height                                   : 1 080 pixels
  15. Display aspect ratio                     : 16:9
  16. Frame rate mode                          : Constant
  17. Frame rate                               : 23.976 (24000/1001) FPS
  18. Color space                              : YUV
  19. Chroma subsampling                       : 4:2:0
  20. Bit depth                                : 8 bits
  21. Scan type                                : Progressive
  22. Bits/(Pixel*Frame)                       : 0.201
  23. Stream size                              : 5.96 GiB (94%)
  24. Language                                 : English
  25. Default                                  : Yes
  26. Forced                                   : No
  27. Color range                              : Limited
  28. Color primaries                          : BT.709
  29. Transfer characteristics                 : BT.709
  30. Matrix coefficients                      : BT.709

  31. Audio
  32. ID                                       : 2
  33. Format                                   : E-AC-3
  34. Format/Info                              : Enhanced AC-3
  35. Commercial name                          : Dolby Digital Plus
  36. Codec ID                                 : A_EAC3
  37. Duration                                 : 1 h 28 min
  38. Bit rate mode                            : Constant
  39. Bit rate                                 : 640 kb/s
  40. Channel(s)                               : 6 channels
  41. Channel layout                           : L R C LFE Ls Rs
  42. Sampling rate                            : 48.0 kHz
  43. Frame rate                               : 31.250 FPS (1536 SPF)
  44. Compression mode                         : Lossy
  45. Stream size                              : 407 MiB (6%)
  46. Language                                 : English
  47. Service kind                             : Complete Main
  48. Default                                  : Yes
  49. Forced                                   : No

  50. Text
  51. ID                                       : 3
  52. Format                                   : UTF-8
  53. Codec ID                                 : S_TEXT/UTF8
  54. Codec ID/Info                            : UTF-8 Plain Text
  55. Duration                                 : 1 h 26 min
  56. Bit rate                                 : 67 b/s
  57. Count of elements                        : 1377
  58. Stream size                              : 42.6 KiB (0%)
  59. Language                                 : English
  60. Default                                  : No
  61. Forced                                   : No
复制代码

杀机快感 Thrill.of.The.Kill.2006.1080p.AMZN.WEBRip.DDP5.1.x264-ABM 6.36GB-2.png 杀机快感 Thrill.of.The.Kill.2006.1080p.AMZN.WEBRip.DDP5.1.x264-ABM 6.36GB-3.png 杀机快感 Thrill.of.The.Kill.2006.1080p.AMZN.WEBRip.DDP5.1.x264-ABM 6.36GB-4.png






VIP会员免费任意下载本站所有资源!---点击开通
回复

使用道具 举报

懒得打字嘛,点击右侧快捷回复 【右侧内容,后台自定义】
您需要登录后才可以回帖 登录 | 立即注册

本版积分规则

QQ|Archiver|手机版|小黑屋| 中国高清网 |网站地图 

GMT+8, 2019-11-13 18:08 , Processed in 0.205154 second(s), 37 queries .

Powered by HDchina X3.4

Copyright 2017-2019©HDchina.All right reserved

返回顶部 联系我们