查看: 8|回复: 0

[剧情片] 棕榈滩 Palm.Beach.2019.1080p.WEBRip.x264-RARBG 1.85GB

[复制链接]

 成长值: 3230

级别:资源管理组

注册时间
2017-10-20
最后登录
2019-11-21
听众
1
收听
0
主题
87390
蓝光币
63614 枚
贡献
11749 点
发表于 2019-11-6 15:18:53 | 显示全部楼层 |阅读模式
棕榈滩 Palm.Beach.2019.1080p.WEBRip.x264-RARBG 1.85GB-1.png

译  名 棕榈滩
片  名 Palm Beach
年  代 2019
产  地 澳大利亚
类  别 剧情 / 笑剧
语  言 英语
上映日期 2019-06-05(悉尼电影节) / 2019-08-08(澳大利亚/新西兰)
IMDb评分  6.3/10 from 195 users
IMDb链接  https://www.imdb.com/title/tt8751928
豆瓣评分 0/10 from 0 users
豆瓣链接 https://movie.douban.com/subject/33436427/
片  长 100分钟
导  演 蕾切尔·沃德 Rachel Ward
编  剧 Joanna Murray-Smith / 蕾切尔·沃德 Rachel Ward
主  演 山姆·尼尔 Sam Neill
       理查德·E·格兰特 Richard E. Grant
       格列塔·斯卡奇 Greta Scacchi
       克莱尔·范·德·波姆 Claire van der Boom
       布莱恩·布朗 Bryan Brown
       杰奎琳·麦根斯 Jacqueline McKenzie
       Aaron Jeffery
       Heather Mitchell
       Matilda Brown
       查利·维克斯 Charlie Vickers
       费利克斯·威廉森 Felix Williamson
       Frances Berry
       Ryan Bown
       Mitchell Why
       Roelene Coleman


标  签 笑剧 | 2019 | 澳洲 | 澳大利亚 | 你们在哪找到资本? | StateTheatre | SFF2019

简  介  

  终生的朋友们在悉尼棕榈滩集会
  1. Video
  2. ID                                       : 1
  3. Format                                   : AVC
  4. Format/Info                              : Advanced Video Codec
  5. Format profile                           : High@L4
  6. Format settings                          : CABAC / 4 Ref Frames
  7. Format settings, CABAC                   : Yes
  8. Format settings, Reference frames        : 4 frames
  9. Codec ID                                 : avc1
  10. Codec ID/Info                            : Advanced Video Coding
  11. Duration                                 : 1 h 37 min
  12. Bit rate                                 : 2 500 kb/s
  13. Width                                    : 1 920 pixels
  14. Height                                   : 802 pixels
  15. Display aspect ratio                     : 2.40:1
  16. Frame rate mode                          : Constant
  17. Frame rate                               : 23.976 (23976/1000) FPS
  18. Color space                              : YUV
  19. Chroma subsampling                       : 4:2:0
  20. Bit depth                                : 8 bits
  21. Scan type                                : Progressive
  22. Bits/(Pixel*Frame)                       : 0.068
  23. Stream size                              : 1.69 GiB (92%)
  24. Writing library                          : x264 core 152 r2851M ba24899
  25. Encoding settings                        : cabac=1 / ref=4 / deblock=1:-1:-1 / analyse=0x3:0x113 / me=umh / subme=9 / psy=1 / psy_rd=1.00:0.15 / mixed_ref=1 / me_range=24 / chroma_me=1 / trellis=2 / 8x8dct=1 / cqm=0 / deadzone=21,11 / fast_pskip=1 / chroma_qp_offset=-3 / threads=32 / lookahead_threads=4 / sliced_threads=0 / nr=0 / decimate=1 / interlaced=0 / bluray_compat=0 / constrained_intra=0 / bframes=3 / b_pyramid=2 / b_adapt=2 / b_bias=0 / direct=3 / weightb=1 / open_gop=0 / weightp=2 / keyint=250 / keyint_min=25 / scenecut=40 / intra_refresh=0 / rc_lookahead=50 / rc=2pass / mbtree=1 / bitrate=2500 / ratetol=1.0 / qcomp=0.60 / qpmin=0 / qpmax=69 / qpstep=4 / cplxblur=20.0 / qblur=0.5 / vbv_maxrate=31250 / vbv_bufsize=31250 / nal_hrd=none / filler=0 / ip_ratio=1.40 / aq=3:1.00
  26. Encoded date                             : UTC 2019-11-05 17:14:55
  27. Tagged date                              : UTC 2019-11-05 17:14:55
  28. Codec configuration box                  : avcC

  29. Audio
  30. ID                                       : 2
  31. Format                                   : AAC LC
  32. Format/Info                              : Advanced Audio Codec Low Complexity
  33. Codec ID                                 : mp4a-40-2
  34. Duration                                 : 1 h 37 min
  35. Duration_LastFrame                       : -11 ms
  36. Bit rate mode                            : Constant
  37. Bit rate                                 : 224 kb/s
  38. Channel(s)                               : 6 channels
  39. Channel layout                           : C L R Ls Rs LFE
  40. Sampling rate                            : 48.0 kHz
  41. Frame rate                               : 46.875 FPS (1024 SPF)
  42. Compression mode                         : Lossy
  43. Stream size                              : 156 MiB (8%)
  44. Language                                 : English
  45. Default                                  : Yes
  46. Alternate group                          : 1
  47. Encoded date                             : UTC 2019-11-05 17:14:55
  48. Tagged date                              : UTC 2019-11-05 17:14:55
复制代码

棕榈滩 Palm.Beach.2019.1080p.WEBRip.x264-RARBG 1.85GB-2.png 棕榈滩 Palm.Beach.2019.1080p.WEBRip.x264-RARBG 1.85GB-3.png 棕榈滩 Palm.Beach.2019.1080p.WEBRip.x264-RARBG 1.85GB-4.png







VIP会员免费任意下载本站所有资源!---点击开通
回复

使用道具 举报

懒得打字嘛,点击右侧快捷回复 【右侧内容,后台自定义】
您需要登录后才可以回帖 登录 | 立即注册

本版积分规则

QQ|Archiver|手机版|小黑屋| 中国高清网 |网站地图

GMT+8, 2019-11-22 04:55 , Processed in 0.219802 second(s), 37 queries .

Powered by HDchina X3.4

Copyright 2017-2019©HDchina.All right reserved

返回顶部 联系我们