查看: 34|回复: 0

[剧情片] 杀手群英会 Cold.Sweat.1970.1080p.BluRay.x264.DTS-FGT 8.52GB

[复制链接]

 成长值: 3210

级别:资源管理组

注册时间
2017-10-20
最后登录
2019-11-20
听众
1
收听
0
主题
87221
蓝光币
63016 枚
贡献
11580 点
发表于 2019-11-6 15:14:14 | 显示全部楼层 |阅读模式
151325shrs6suuz5by58kr.png

译  名 杀手群英会 / Cold Sweat
片  名 Cold Sweat
年  代 1970
产  地 法国 / 意大利 / 比利时
类  别 剧情 / 行动 / 惊悚
语  言 英语 / 法语
上映日期 1970-12-18
IMDb评分  5.8/10 from 1941 users
IMDb链接  https://www.imdb.com/title/tt0066970
豆瓣评分 0/10 from 0 users
豆瓣链接 https://movie.douban.com/subject/3241394/
片  长 France: 94 分钟
导  演 特伦斯·杨 Terence Young
编  剧 Dorothea Bennett / 乔·艾辛格 Jo Eisinger
主  演 查尔斯·布朗森 Charles Bronson
       丽芙·乌曼 Liv Ullmann
       詹姆斯·梅森 James Mason
       吉尔·爱兰德 Jill Ireland
       迈克尔·康斯坦丁 Michel Constantin
       路易吉·皮斯蒂利 Luigi Pistilli
       Yannick Delulle
       Paul Bonifas
       Sabine Sun
       Roger Mailles
       Nathalie Varallo
       Remo Mosconi
       Dominique Crosland
       Jean Topart


标  签 法国 | 意大利 | 行动 | CharlesBronson | 被轻忽的电影 | 犯罪 | 妖妖舞 | 国外电影

简  介  

  暂无相关剧情先容
  1. Video
  2. ID                                       : 1
  3. Format                                   : AVC
  4. Format/Info                              : Advanced Video Codec
  5. Format profile                           : High@L4
  6. Format settings                          : CABAC / 4 Ref Frames
  7. Format settings, CABAC                   : Yes
  8. Format settings, Reference frames        : 4 frames
  9. Codec ID                                 : V_MPEG4/ISO/AVC
  10. Duration                                 : 1 h 33 min
  11. Bit rate                                 : 11.5 Mb/s
  12. Width                                    : 1 920 pixels
  13. Height                                   : 1 036 pixels
  14. Display aspect ratio                     : 1.85:1
  15. Frame rate mode                          : Constant
  16. Frame rate                               : 23.976 (24000/1001) FPS
  17. Color space                              : YUV
  18. Chroma subsampling                       : 4:2:0
  19. Bit depth                                : 8 bits
  20. Scan type                                : Progressive
  21. Bits/(Pixel*Frame)                       : 0.241
  22. Stream size                              : 7.53 GiB (88%)
  23. Title                                    : Cold.Sweat.1970.1080p.BluRay.x264.DTS-FGT
  24. Writing library                          : x264 core 148 r2748 97eaef2
  25. Encoding settings                        : cabac=1 / ref=4 / deblock=1:-2:-2 / analyse=0x3:0x113 / me=umh / subme=9 / psy=1 / psy_rd=1.00:0.15 / mixed_ref=1 / me_range=16 / chroma_me=1 / trellis=2 / 8x8dct=1 / cqm=0 / deadzone=21,11 / fast_pskip=1 / chroma_qp_offset=-3 / threads=24 / lookahead_threads=3 / sliced_threads=0 / nr=0 / decimate=1 / interlaced=0 / bluray_compat=0 / constrained_intra=0 / bframes=3 / b_pyramid=2 / b_adapt=1 / b_bias=0 / direct=3 / weightb=1 / open_gop=0 / weightp=2 / keyint=250 / keyint_min=25 / scenecut=40 / intra_refresh=0 / rc_lookahead=50 / rc=2pass / mbtree=1 / bitrate=11500 / ratetol=1.0 / qcomp=0.60 / qpmin=0 / qpmax=69 / qpstep=4 / cplxblur=20.0 / qblur=0.5 / vbv_maxrate=31250 / vbv_bufsize=31250 / nal_hrd=none / filler=0 / ip_ratio=1.40 / aq=1:1.00
  26. Language                                 : English
  27. Default                                  : Yes
  28. Forced                                   : No

  29. Audio
  30. ID                                       : 2
  31. Format                                   : DTS
  32. Format/Info                              : Digital Theater Systems
  33. Codec ID                                 : A_DTS
  34. Duration                                 : 1 h 33 min
  35. Bit rate mode                            : Constant
  36. Bit rate                                 : 1 509 kb/s
  37. Channel(s)                               : 2 channels
  38. Channel layout                           : L R
  39. Sampling rate                            : 48.0 kHz
  40. Frame rate                               : 93.750 FPS (512 SPF)
  41. Bit depth                                : 16 bits
  42. Compression mode                         : Lossy
  43. Stream size                              : 1 011 MiB (12%)
  44. Title                                    : Cold.Sweat.1970.1080p.BluRay.x264.DTS-FGT
  45. Language                                 : English
  46. Default                                  : Yes
  47. Forced                                   : No

  48. Text #1
  49. ID                                       : 3
  50. Format                                   : UTF-8
  51. Codec ID                                 : S_TEXT/UTF8
  52. Codec ID/Info                            : UTF-8 Plain Text
  53. Duration                                 : 45 min 33 s
  54. Bit rate                                 : 1 b/s
  55. Count of elements                        : 12
  56. Stream size                              : 352 Bytes (0%)
  57. Title                                    : FORCED
  58. Language                                 : English
  59. Default                                  : Yes
  60. Forced                                   : No

  61. Text #2
  62. ID                                       : 4
  63. Format                                   : UTF-8
  64. Codec ID                                 : S_TEXT/UTF8
  65. Codec ID/Info                            : UTF-8 Plain Text
  66. Duration                                 : 1 h 31 min
  67. Bit rate                                 : 50 b/s
  68. Count of elements                        : 1083
  69. Stream size                              : 34.0 KiB (0%)
  70. Language                                 : English
  71. Default                                  : No
  72. Forced                                   : No

  73. Menu
  74. 00:00:00.000                             : en:Chapter 01
  75. 00:12:49.394                             : en:Chapter 02
  76. 00:21:18.569                             : en:Chapter 03
  77. 00:29:06.828                             : en:Chapter 04
  78. 00:41:45.795                             : en:Chapter 05
  79. 00:56:02.943                             : en:Chapter 06
  80. 01:06:45.793                             : en:Chapter 07
  81. 01:16:40.763                             : en:Chapter 08
复制代码

杀手群英会 Cold.Sweat.1970.1080p.BluRay.x264.DTS-FGT 8.52GB-2.png 杀手群英会 Cold.Sweat.1970.1080p.BluRay.x264.DTS-FGT 8.52GB-3.png 杀手群英会 Cold.Sweat.1970.1080p.BluRay.x264.DTS-FGT 8.52GB-4.png







VIP会员免费任意下载本站所有资源!---点击开通
回复

使用道具 举报

懒得打字嘛,点击右侧快捷回复 【右侧内容,后台自定义】
您需要登录后才可以回帖 登录 | 立即注册

本版积分规则

QQ|Archiver|手机版|小黑屋| 中国高清网 |网站地图

GMT+8, 2019-11-20 09:34 , Processed in 0.236348 second(s), 37 queries .

Powered by HDchina X3.4

Copyright 2017-2019©HDchina.All right reserved

返回顶部 联系我们