查看: 50|回复: 0

[恐怖片] 恐怖校园/死唔断戏 Cut.2000.1080p.BluRay.x264.DTS-FGT 7.54GB

[复制链接]

 成长值: 3160

级别:资源管理组

注册时间
2017-10-20
最后登录
2019-11-11
听众
1
收听
0
主题
86761
蓝光币
61857 枚
贡献
11119 点
发表于 2019-11-5 23:57:30 | 显示全部楼层 |阅读模式
可骇校园/死唔断戏 Cut.2000.1080p.BluRay.x264.DTS-FGT 7.54GB-1.png

译  名 可骇校园 / 死唔断戏
片  名 Cut
年  代 2000
产  地 澳大利亚 / 德国 / 美国
类  别 笑剧 / 悬疑 / 惊悚 / 可骇
语  言 英语
上映日期 2000-11-09
IMDb评分  4.2/10 from 3063 users
IMDb链接  https://www.imdb.com/title/tt0189456
豆瓣评分 0/10 from 0 users
豆瓣链接 https://movie.douban.com/subject/1306574/
片  长 82 分钟
导  演 金波·兰道 Kimble Rendall
编  剧 Dave Warner
主  演 莫利·林沃德 Molly Ringwald
       Frank Roberts
       凯莉·米洛 Kylie Minogue
       Geoff Revell
       杰西卡·娜皮埃尔 Jessica Napier
       Sarah Kants


标  签 可骇 | 笑剧 | Cult | 戏中戏 | 可骇片 | 奇异 | 西片 | 澳大利亚电影

简  介  

  一出四十年前未拍完的可骇电影《血腾腾》,传言具有某种魔咒,使拍摄的人会受咒而死。昔时《血腾腾》的电影导演希拉莉要拍好一部震天动地的可骇片,拍摄途中,男配角戴上电影脚色疤面人的面具将她血腥谋杀,男配角诡计对女配角云丽莎施辣手,却反被她杀掉。而昔时担任电影《血腾腾》副导演,正是妹生的电影系教师罗教员。
  一群不知天高地厚的妹生,却要以完成这部电影作品作为结业作品。十四年的明天,曾拟再度开拍该片但死去的监制的妻子玛花,应承投资开拍此片,电影《血腾腾》昔时女配角云丽莎担任女配角,罗教员又成为云丽莎的助手。但拍摄时代,连续串荒诞可骇的工作发生,妹生们连续被杀……
  该材料转载自www.Tv5v.comhttp://www.tv5v.com/Tv/ViewGut11573.Htm
  1. Video
  2. ID                                       : 1
  3. Format                                   : AVC
  4. Format/Info                              : Advanced Video Codec
  5. Format profile                           : High@L4
  6. Format settings                          : CABAC / 4 Ref Frames
  7. Format settings, CABAC                   : Yes
  8. Format settings, Reference frames        : 4 frames
  9. Codec ID                                 : V_MPEG4/ISO/AVC
  10. Duration                                 : 1 h 23 min
  11. Bit rate                                 : 11.5 Mb/s
  12. Width                                    : 1 920 pixels
  13. Height                                   : 1 036 pixels
  14. Display aspect ratio                     : 1.85:1
  15. Frame rate mode                          : Constant
  16. Frame rate                               : 23.976 (24000/1001) FPS
  17. Color space                              : YUV
  18. Chroma subsampling                       : 4:2:0
  19. Bit depth                                : 8 bits
  20. Scan type                                : Progressive
  21. Bits/(Pixel*Frame)                       : 0.241
  22. Stream size                              : 6.67 GiB (88%)
  23. Title                                    : Cut.2000.1080p.BluRay.x264.DTS-FGT
  24. Writing library                          : x264 core 148 r2748 97eaef2
  25. Encoding settings                        : cabac=1 / ref=4 / deblock=1:-2:-2 / analyse=0x3:0x113 / me=umh / subme=9 / psy=1 / psy_rd=1.00:0.15 / mixed_ref=1 / me_range=16 / chroma_me=1 / trellis=2 / 8x8dct=1 / cqm=0 / deadzone=21,11 / fast_pskip=1 / chroma_qp_offset=-3 / threads=24 / lookahead_threads=3 / sliced_threads=0 / nr=0 / decimate=1 / interlaced=0 / bluray_compat=0 / constrained_intra=0 / bframes=3 / b_pyramid=2 / b_adapt=1 / b_bias=0 / direct=3 / weightb=1 / open_gop=0 / weightp=2 / keyint=250 / keyint_min=25 / scenecut=40 / intra_refresh=0 / rc_lookahead=50 / rc=2pass / mbtree=1 / bitrate=11500 / ratetol=1.0 / qcomp=0.60 / qpmin=0 / qpmax=69 / qpstep=4 / cplxblur=20.0 / qblur=0.5 / vbv_maxrate=31250 / vbv_bufsize=31250 / nal_hrd=none / filler=0 / ip_ratio=1.40 / aq=1:1.00
  26. Language                                 : English
  27. Default                                  : Yes
  28. Forced                                   : No

  29. Audio
  30. ID                                       : 2
  31. Format                                   : DTS
  32. Format/Info                              : Digital Theater Systems
  33. Codec ID                                 : A_DTS
  34. Duration                                 : 1 h 23 min
  35. Bit rate mode                            : Constant
  36. Bit rate                                 : 1 509 kb/s
  37. Channel(s)                               : 2 channels
  38. Channel layout                           : L R
  39. Sampling rate                            : 48.0 kHz
  40. Frame rate                               : 93.750 FPS (512 SPF)
  41. Bit depth                                : 16 bits
  42. Compression mode                         : Lossy
  43. Stream size                              : 896 MiB (12%)
  44. Title                                    : Cut.2000.1080p.BluRay.x264.DTS-FGT
  45. Language                                 : English
  46. Default                                  : Yes
  47. Forced                                   : No

  48. Text
  49. ID                                       : 3
  50. Format                                   : UTF-8
  51. Codec ID                                 : S_TEXT/UTF8
  52. Codec ID/Info                            : UTF-8 Plain Text
  53. Duration                                 : 1 h 21 min
  54. Bit rate                                 : 54 b/s
  55. Count of elements                        : 1381
  56. Stream size                              : 32.8 KiB (0%)
  57. Language                                 : English
  58. Default                                  : Yes
  59. Forced                                   : No

  60. Menu
  61. 00:00:00.000                             : en:Chapter 01
  62. 00:07:25.362                             : en:Chapter 02
  63. 00:15:47.697                             : en:Chapter 03
  64. 00:23:06.051                             : en:Chapter 04
  65. 00:28:22.951                             : en:Chapter 05
  66. 00:36:46.413                             : en:Chapter 06
  67. 00:45:04.619                             : en:Chapter 07
  68. 00:52:26.894                             : en:Chapter 08
  69. 00:57:49.883                             : en:Chapter 09
  70. 01:02:57.315                             : en:Chapter 10
  71. 01:11:25.364                             : en:Chapter 11
  72. 01:18:15.149                             : en:Chapter 12
复制代码

235612f600ylf8uuuegyw0.png 可骇校园/死唔断戏 Cut.2000.1080p.BluRay.x264.DTS-FGT 7.54GB-3.png 可骇校园/死唔断戏 Cut.2000.1080p.BluRay.x264.DTS-FGT 7.54GB-4.png







VIP会员免费任意下载本站所有资源!---点击开通
回复

使用道具 举报

懒得打字嘛,点击右侧快捷回复 【右侧内容,后台自定义】
您需要登录后才可以回帖 登录 | 立即注册

本版积分规则

QQ|Archiver|手机版|小黑屋| 中国高清网 |网站地图 

GMT+8, 2019-11-15 10:38 , Processed in 0.239762 second(s), 37 queries .

Powered by HDchina X3.4

Copyright 2017-2019©HDchina.All right reserved

返回顶部 联系我们