查看: 90|回复: 0

[动作片] 双旗镇刀客 The.Swordsman.in.Double.Flag.Town.1991.CHINESE.1080p.BluRay.x264.DTS-FGT 8

[复制链接]

 成长值: 3230

级别:资源管理组

注册时间
2017-10-20
最后登录
2019-11-21
听众
1
收听
0
主题
87390
蓝光币
63614 枚
贡献
11749 点
发表于 2019-11-5 23:53:20 | 显示全部楼层 |阅读模式
双旗镇刀客 The.Swordsman.in.Double.Flag.Town.1991.CHINESE.1080p.BluRay.x264.DTS-FGT 8-1.png

译  名 The Swordsman in Double Flag Town
片  名 双旗镇刀客
年  代 1991
产  地 中国大陆
类  别 行动 / 冒险 / 武侠
语  言 汉语普通话
上映日期 1991-05-17(中国大陆)
IMDb评分  7.2/10 from 371 users
IMDb链接  https://www.imdb.com/title/tt0102917
豆瓣评分 8.2/10 from 24125 users
豆瓣链接 https://movie.douban.com/subject/1307812/
片  长 91分钟
导  演 何平 Ping He
编  剧 何平 Ping He / 杨争光 Zhengguang Yang
主  演 高伟 Wei Gao
       赵玛娜 Mana Zhao
       常江 Jiang Chang
       孙海英 Haiyin Sun
       王刚 Gang Wang


标  签 武侠 | 行动 | 西部 | 1991 | 中国大陆 | 典范 | 剧情 | 人性

简  介  

  中国西部,黄沙漫天,马嘶人怒。自幼跟从父亲练习关西无极刀法的孩哥(高伟 饰)遵照父亲的遗言,来到双旗镇寻觅指腹为婚的妻子好妹(赵玛娜 饰)。只叹世态炎凉,世态炎凉,好妹及其父亲瘸子(常江 饰)绝不待见这个男孩。婚期无望,孩哥只得临时在瘸子的店里当小伙计。一日,匪贼二爷意欲强横好妹,成果为孩哥所杀。此举惹恼了终年占据双旗镇的匪贼头子一刀仙(孙海英 饰)。由此惹得滔滔狂沙中刀光血影,鲜血四溅……
  本片荣获1991年中国电影金鸡奖最好美术奖、1992年东京第三届夕张国际惊险与科幻电影节最好影片大奖、1992年第五届《中时晚报》电影奖贸易映演类年度大陆优异电影奖、1993年柏林电影节国际影评奖。

获奖情况  

  第11届中国电影金鸡奖(1991)
  最好摄影(提名) 马德林
  最好美术 钱运选
  1. Video
  2. ID                                       : 1
  3. Format                                   : AVC
  4. Format/Info                              : Advanced Video Codec
  5. Format profile                           : High@L4
  6. Format settings                          : CABAC / 4 Ref Frames
  7. Format settings, CABAC                   : Yes
  8. Format settings, Reference frames        : 4 frames
  9. Codec ID                                 : V_MPEG4/ISO/AVC
  10. Duration                                 : 1 h 31 min
  11. Bit rate                                 : 11.5 Mb/s
  12. Width                                    : 1 920 pixels
  13. Height                                   : 1 036 pixels
  14. Display aspect ratio                     : 1.85:1
  15. Frame rate mode                          : Constant
  16. Frame rate                               : 24.000 FPS
  17. Color space                              : YUV
  18. Chroma subsampling                       : 4:2:0
  19. Bit depth                                : 8 bits
  20. Scan type                                : Progressive
  21. Bits/(Pixel*Frame)                       : 0.241
  22. Stream size                              : 7.35 GiB (88%)
  23. Title                                    : The.Swordsman.in.Double.Flag.Town.1991.CHINESE.1080p.BluRay.x264.DTS-FGT
  24. Writing library                          : x264 core 148 r2795M aaa9aa8
  25. Encoding settings                        : cabac=1 / ref=4 / deblock=1:-2:-2 / analyse=0x3:0x113 / me=umh / subme=9 / psy=1 / psy_rd=1.00:0.15 / mixed_ref=1 / me_range=16 / chroma_me=1 / trellis=2 / 8x8dct=1 / cqm=0 / deadzone=21,11 / fast_pskip=1 / chroma_qp_offset=-3 / threads=24 / lookahead_threads=3 / sliced_threads=0 / nr=0 / decimate=1 / interlaced=0 / bluray_compat=0 / constrained_intra=0 / bframes=3 / b_pyramid=2 / b_adapt=1 / b_bias=0 / direct=3 / weightb=1 / open_gop=0 / weightp=2 / keyint=250 / keyint_min=25 / scenecut=40 / intra_refresh=0 / rc_lookahead=50 / rc=2pass / mbtree=1 / bitrate=11500 / ratetol=1.0 / qcomp=0.60 / qpmin=0 / qpmax=69 / qpstep=4 / cplxblur=20.0 / qblur=0.5 / vbv_maxrate=31250 / vbv_bufsize=31250 / nal_hrd=none / filler=0 / ip_ratio=1.40 / aq=1:1.00
  26. Language                                 : Chinese
  27. Default                                  : Yes
  28. Forced                                   : No

  29. Audio
  30. ID                                       : 2
  31. Format                                   : DTS
  32. Format/Info                              : Digital Theater Systems
  33. Codec ID                                 : A_DTS
  34. Duration                                 : 1 h 31 min
  35. Bit rate mode                            : Constant
  36. Bit rate                                 : 1 509 kb/s
  37. Channel(s)                               : 1 channel
  38. Channel layout                           : C
  39. Sampling rate                            : 48.0 kHz
  40. Frame rate                               : 93.750 FPS (512 SPF)
  41. Bit depth                                : 16 bits
  42. Compression mode                         : Lossy
  43. Stream size                              : 987 MiB (12%)
  44. Title                                    : The.Swordsman.in.Double.Flag.Town.1991.CHINESE.1080p.BluRay.x264.DTS-FGT
  45. Language                                 : Chinese
  46. Default                                  : Yes
  47. Forced                                   : No

  48. Text
  49. ID                                       : 3
  50. Format                                   : UTF-8
  51. Codec ID                                 : S_TEXT/UTF8
  52. Codec ID/Info                            : UTF-8 Plain Text
  53. Duration                                 : 1 h 29 min
  54. Bit rate                                 : 21 b/s
  55. Count of elements                        : 447
  56. Stream size                              : 14.1 KiB (0%)
  57. Language                                 : English
  58. Default                                  : Yes
  59. Forced                                   : No

  60. Menu
  61. 00:00:00.000                             : en:Chapter 01
  62. 00:10:18.791                             : en:Chapter 02
  63. 00:17:33.291                             : en:Chapter 03
  64. 00:24:27.041                             : en:Chapter 04
  65. 00:31:55.958                             : en:Chapter 05
  66. 00:39:38.958                             : en:Chapter 06
  67. 00:47:10.500                             : en:Chapter 07
  68. 00:52:37.458                             : en:Chapter 08
  69. 01:00:37.708                             : en:Chapter 09
  70. 01:07:48.041                             : en:Chapter 10
  71. 01:16:06.625                             : en:Chapter 11
  72. 01:27:08.375                             : en:Chapter 12
复制代码

双旗镇刀客 The.Swordsman.in.Double.Flag.Town.1991.CHINESE.1080p.BluRay.x264.DTS-FGT 8-2.png 双旗镇刀客 The.Swordsman.in.Double.Flag.Town.1991.CHINESE.1080p.BluRay.x264.DTS-FGT 8-3.png 双旗镇刀客 The.Swordsman.in.Double.Flag.Town.1991.CHINESE.1080p.BluRay.x264.DTS-FGT 8-4.png







VIP会员免费任意下载本站所有资源!---点击开通
回复

使用道具 举报

懒得打字嘛,点击右侧快捷回复 【右侧内容,后台自定义】
您需要登录后才可以回帖 登录 | 立即注册

本版积分规则

QQ|Archiver|手机版|小黑屋| 中国高清网 |网站地图

GMT+8, 2019-11-22 03:02 , Processed in 0.247681 second(s), 37 queries .

Powered by HDchina X3.4

Copyright 2017-2019©HDchina.All right reserved

返回顶部 联系我们