查看: 13|回复: 0

[恐怖片] 墓地凶灵 Ghost.in.the.Graveyard.2019.1080p.AMZN.WEBRip.DDP5.1.x264-NTG 4.84GB

[复制链接]

 成长值: 3160

级别:资源管理组

注册时间
2017-10-20
最后登录
2019-11-15
听众
1
收听
0
主题
86796
蓝光币
61952 枚
贡献
11154 点
发表于 2019-11-5 21:28:50 | 显示全部楼层 |阅读模式
墓地凶灵 Ghost.in.the.Graveyard.2019.1080p.AMZN.WEBRip.DDP5.1.x264-NTG 4.84GB-1.png

译  名 墓地凶灵
片  名 Ghost in the Graveyard
年  代 2018
产  地 美国
类  别 剧情 / 行动 / 可骇
语  言 英语
上映日期 2018-10-15(美国)
IMDb评分  8.1/10 from 234 users
IMDb链接  https://www.imdb.com/title/tt7124092
豆瓣评分 0/10 from 0 users
豆瓣链接 https://movie.douban.com/subject/27169625/
导  演 Charlie Comparetto
编  剧 Charlie Comparetto
主  演 Maria Olsen
       Dane West
       Tony Head
       Jacqi Vene
       Zebedee Row
       Shiloh Verrico
       Vanessa Urzia
       Faye Giordano
       Grace Narducci
       Olivia Larsen
       Karen Xerri
       Kylie Kiss
       Danielle Muehlen
       Winslow Fegley
       Mary Anisi


标  签 惊悚 | 可骇 | 阿飘不甘孤单系列 | 诡异 | 美国电影 | 美国 | 灵异 | 可骇片

简  介  

  A small town comes under the thumb of Martha, a ghost who returns to haunt the children who witnessed her death during a "game" of Ghost in the Graveyard as young children.
  1. Video
  2. ID                                       : 1
  3. Format                                   : AVC
  4. Format/Info                              : Advanced Video Codec
  5. Format profile                           : High@L4
  6. Format settings                          : CABAC / 4 Ref Frames
  7. Format settings, CABAC                   : Yes
  8. Format settings, Reference frames        : 4 frames
  9. Codec ID                                 : V_MPEG4/ISO/AVC
  10. Duration                                 : 1 h 32 min
  11. Bit rate mode                            : Constant
  12. Bit rate                                 : 7 273 kb/s
  13. Nominal bit rate                         : 10 000 kb/s
  14. Width                                    : 1 920 pixels
  15. Height                                   : 816 pixels
  16. Display aspect ratio                     : 2.35:1
  17. Frame rate mode                          : Constant
  18. Frame rate                               : 23.976 (24000/1001) FPS
  19. Color space                              : YUV
  20. Chroma subsampling                       : 4:2:0
  21. Bit depth                                : 8 bits
  22. Scan type                                : Progressive
  23. Bits/(Pixel*Frame)                       : 0.194
  24. Stream size                              : 4.72 GiB (97%)
  25. Default                                  : Yes
  26. Forced                                   : No
  27. Color range                              : Limited
  28. Color primaries                          : BT.709
  29. Transfer characteristics                 : BT.709
  30. Matrix coefficients                      : BT.709

  31. Audio
  32. ID                                       : 2
  33. Format                                   : E-AC-3
  34. Format/Info                              : Enhanced AC-3
  35. Commercial name                          : Dolby Digital Plus
  36. Codec ID                                 : A_EAC3
  37. Duration                                 : 1 h 32 min
  38. Bit rate mode                            : Constant
  39. Bit rate                                 : 192 kb/s
  40. Channel(s)                               : 6 channels
  41. Channel layout                           : L R C LFE Ls Rs
  42. Sampling rate                            : 48.0 kHz
  43. Frame rate                               : 31.250 FPS (1536 SPF)
  44. Compression mode                         : Lossy
  45. Stream size                              : 128 MiB (3%)
  46. Language                                 : English
  47. Service kind                             : Complete Main
  48. Default                                  : Yes
  49. Forced                                   : No

  50. Text #1
  51. ID                                       : 3
  52. Format                                   : UTF-8
  53. Codec ID                                 : S_TEXT/UTF8
  54. Codec ID/Info                            : UTF-8 Plain Text
  55. Duration                                 : 1 h 29 min
  56. Bit rate                                 : 41 b/s
  57. Count of elements                        : 1070
  58. Stream size                              : 27.0 KiB (0%)
  59. Language                                 : English
  60. Default                                  : No
  61. Forced                                   : No

  62. Text #2
  63. ID                                       : 4
  64. Format                                   : UTF-8
  65. Codec ID                                 : S_TEXT/UTF8
  66. Codec ID/Info                            : UTF-8 Plain Text
  67. Duration                                 : 1 h 31 min
  68. Bit rate                                 : 47 b/s
  69. Count of elements                        : 1313
  70. Stream size                              : 31.9 KiB (0%)
  71. Title                                    : SDH
  72. Language                                 : English
  73. Default                                  : No
  74. Forced                                   : No
复制代码

墓地凶灵 Ghost.in.the.Graveyard.2019.1080p.AMZN.WEBRip.DDP5.1.x264-NTG 4.84GB-2.png 墓地凶灵 Ghost.in.the.Graveyard.2019.1080p.AMZN.WEBRip.DDP5.1.x264-NTG 4.84GB-3.png 墓地凶灵 Ghost.in.the.Graveyard.2019.1080p.AMZN.WEBRip.DDP5.1.x264-NTG 4.84GB-4.png







VIP会员免费任意下载本站所有资源!---点击开通
回复

使用道具 举报

懒得打字嘛,点击右侧快捷回复 【右侧内容,后台自定义】
您需要登录后才可以回帖 登录 | 立即注册

本版积分规则

QQ|Archiver|手机版|小黑屋| 中国高清网 |网站地图 

GMT+8, 2019-11-15 20:59 , Processed in 0.242725 second(s), 37 queries .

Powered by HDchina X3.4

Copyright 2017-2019©HDchina.All right reserved

返回顶部 联系我们