查看: 14|回复: 0

[剧情片] 柳烈的音乐专辑 Tune.in.for.Love.2019.KOREAN.1080p.NF.WEBRip.DDP5.1.x264-iKA 4.34GB

[复制链接]

 成长值: 3210

级别:资源管理组

注册时间
2017-10-20
最后登录
2019-11-20
听众
1
收听
0
主题
87251
蓝光币
63202 枚
贡献
11610 点
发表于 2019-11-5 21:27:29 | 显示全部楼层 |阅读模式
柳烈的音乐专辑 Tune.in.for.Love.2019.KOREAN.1080p.NF.WEBRip.DDP5.1.x264-iKA 4.34GB-1.png

译  名 柳烈的音乐专辑 / Tune in for Love / Yoo-Yeol's Music Album / 唯一的音乐簿 / 愉悦的音乐专辑 / 柳烈的音乐簿
片  名 ??? ????
年  代 2019
产  地 韩国
类  别 剧情 / 恋爱
语  言 韩语
上映日期 2019-08-28(韩国)
IMDb评分  7.4/10 from 47 users
IMDb链接  https://www.imdb.com/title/tt10763618
豆瓣评分 7.9/10 from 15810 users
豆瓣链接 https://movie.douban.com/subject/30225296/
片  长 122分钟
导  演 郑址宇 Ji-woo Jung
主  演 金高银 Go-Eun Kim
       丁海寅 Hae-In Jung
       朴海俊 Hea-jun Park
       金国熙 Gook-hee Kim
       郑幼贞 Eu-Gene Jeong
       崔俊英 Joon-young Choi


标  签 金高银 | 恋爱 | 丁海寅 | 文艺 | 韩国电影 | 韩国 | 青春 | 2019

简  介  

  该片报告IMF期间大妹结业那一代年轻人和那时人们的故事。
  1. Video
  2. ID                                       : 1
  3. Format                                   : AVC
  4. Format/Info                              : Advanced Video Codec
  5. Format profile                           : High@L4
  6. Format settings                          : CABAC / 3 Ref Frames
  7. Format settings, CABAC                   : Yes
  8. Format settings, Reference frames        : 3 frames
  9. Codec ID                                 : V_MPEG4/ISO/AVC
  10. Duration                                 : 2 h 2 min
  11. Bit rate mode                            : Variable
  12. Bit rate                                 : 4 420 kb/s
  13. Maximum bit rate                         : 6 630 kb/s
  14. Width                                    : 1 920 pixels
  15. Height                                   : 1 080 pixels
  16. Display aspect ratio                     : 16:9
  17. Frame rate mode                          : Constant
  18. Frame rate                               : 23.976 (24000/1001) FPS
  19. Color space                              : YUV
  20. Chroma subsampling                       : 4:2:0
  21. Bit depth                                : 8 bits
  22. Scan type                                : Progressive
  23. Bits/(Pixel*Frame)                       : 0.089
  24. Stream size                              : 3.79 GiB (87%)
  25. Writing library                          : x264 core 148 r2715 7e75228
  26. Encoding settings                        : cabac=1 / ref=3 / deblock=1:0:0 / analyse=0x1:0x111 / me=umh / subme=10 / psy=1 / psy_rd=1.00:0.00 / mixed_ref=1 / me_range=24 / chroma_me=1 / trellis=2 / 8x8dct=0 / cqm=0 / deadzone=21,11 / fast_pskip=1 / chroma_qp_offset=-2 / threads=8 / lookahead_threads=1 / sliced_threads=0 / nr=0 / decimate=1 / interlaced=0 / bluray_compat=0 / stitchable=1 / constrained_intra=0 / bframes=2 / b_pyramid=0 / b_adapt=2 / b_bias=0 / direct=3 / weightb=1 / open_gop=0 / weightp=2 / keyint=250 / keyint_min=23 / scenecut=0 / intra_refresh=0 / rc_lookahead=48 / rc=2pass / mbtree=1 / bitrate=4420 / ratetol=1.0 / qcomp=0.50 / qpmin=6 / qpmax=51 / qpstep=4 / cplxblur=20.0 / qblur=0.5 / vbv_maxrate=6630 / vbv_bufsize=8840 / nal_hrd=vbr / filler=0 / ip_ratio=1.40 / aq=1:1.00
  27. Default                                  : Yes
  28. Forced                                   : No

  29. Audio
  30. ID                                       : 2
  31. Format                                   : E-AC-3
  32. Format/Info                              : Enhanced AC-3
  33. Commercial name                          : Dolby Digital Plus
  34. Codec ID                                 : A_EAC3
  35. Duration                                 : 2 h 2 min
  36. Bit rate mode                            : Constant
  37. Bit rate                                 : 640 kb/s
  38. Channel(s)                               : 6 channels
  39. Channel layout                           : L R C LFE Ls Rs
  40. Sampling rate                            : 48.0 kHz
  41. Frame rate                               : 31.250 FPS (1536 SPF)
  42. Compression mode                         : Lossy
  43. Stream size                              : 563 MiB (13%)
  44. Language                                 : Korean
  45. Service kind                             : Complete Main
  46. Default                                  : Yes
  47. Forced                                   : No

  48. Text #1
  49. ID                                       : 3
  50. Format                                   : UTF-8
  51. Codec ID                                 : S_TEXT/UTF8
  52. Codec ID/Info                            : UTF-8 Plain Text
  53. Duration                                 : 2 h 2 min
  54. Bit rate                                 : 70 b/s
  55. Count of elements                        : 1384
  56. Stream size                              : 63.5 KiB (0%)
  57. Language                                 : Arabic
  58. Default                                  : No
  59. Forced                                   : No

  60. Text #2
  61. ID                                       : 4
  62. Format                                   : UTF-8
  63. Codec ID                                 : S_TEXT/UTF8
  64. Codec ID/Info                            : UTF-8 Plain Text
  65. Duration                                 : 2 h 2 min
  66. Bit rate                                 : 40 b/s
  67. Count of elements                        : 1381
  68. Stream size                              : 36.3 KiB (0%)
  69. Language                                 : Czech
  70. Default                                  : No
  71. Forced                                   : No

  72. Text #3
  73. ID                                       : 5
  74. Format                                   : UTF-8
  75. Codec ID                                 : S_TEXT/UTF8
  76. Codec ID/Info                            : UTF-8 Plain Text
  77. Duration                                 : 2 h 2 min
  78. Bit rate                                 : 42 b/s
  79. Count of elements                        : 1381
  80. Stream size                              : 38.0 KiB (0%)
  81. Language                                 : Danish
  82. Default                                  : No
  83. Forced                                   : No

  84. Text #4
  85. ID                                       : 6
  86. Format                                   : UTF-8
  87. Codec ID                                 : S_TEXT/UTF8
  88. Codec ID/Info                            : UTF-8 Plain Text
  89. Duration                                 : 2 h 2 min
  90. Bit rate                                 : 44 b/s
  91. Count of elements                        : 1384
  92. Stream size                              : 39.7 KiB (0%)
  93. Language                                 : German
  94. Default                                  : No
  95. Forced                                   : No

  96. Text #5
  97. ID                                       : 7
  98. Format                                   : UTF-8
  99. Codec ID                                 : S_TEXT/UTF8
  100. Codec ID/Info                            : UTF-8 Plain Text
  101. Duration                                 : 2 h 2 min
  102. Bit rate                                 : 69 b/s
  103. Count of elements                        : 1379
  104. Stream size                              : 62.7 KiB (0%)
  105. Language                                 : Greek
  106. Default                                  : No
  107. Forced                                   : No

  108. Text #6
  109. ID                                       : 8
  110. Format                                   : UTF-8
  111. Codec ID                                 : S_TEXT/UTF8
  112. Codec ID/Info                            : UTF-8 Plain Text
  113. Duration                                 : 2 h 2 min
  114. Bit rate                                 : 43 b/s
  115. Count of elements                        : 1359
  116. Stream size                              : 39.3 KiB (0%)
  117. Title                                    : SDH
  118. Language                                 : English
  119. Default                                  : No
  120. Forced                                   : No

  121. Text #7
  122. ID                                       : 9
  123. Format                                   : UTF-8
  124. Codec ID                                 : S_TEXT/UTF8
  125. Codec ID/Info                            : UTF-8 Plain Text
  126. Duration                                 : 2 h 2 min
  127. Bit rate                                 : 38 b/s
  128. Count of elements                        : 1304
  129. Stream size                              : 34.9 KiB (0%)
  130. Language                                 : Spanish
  131. Default                                  : No
  132. Forced                                   : No

  133. Text #8
  134. ID                                       : 10
  135. Format                                   : UTF-8
  136. Codec ID                                 : S_TEXT/UTF8
  137. Codec ID/Info                            : UTF-8 Plain Text
  138. Duration                                 : 2 h 2 min
  139. Bit rate                                 : 47 b/s
  140. Count of elements                        : 1454
  141. Stream size                              : 42.2 KiB (0%)
  142. Language                                 : Spanish
  143. Default                                  : No
  144. Forced                                   : No

  145. Text #9
  146. ID                                       : 11
  147. Format                                   : UTF-8
  148. Codec ID                                 : S_TEXT/UTF8
  149. Codec ID/Info                            : UTF-8 Plain Text
  150. Duration                                 : 2 h 2 min
  151. Bit rate                                 : 41 b/s
  152. Count of elements                        : 1381
  153. Stream size                              : 37.6 KiB (0%)
  154. Title                                    : European
  155. Language                                 : Spanish
  156. Default                                  : No
  157. Forced                                   : No

  158. Text #10
  159. ID                                       : 12
  160. Format                                   : UTF-8
  161. Codec ID                                 : S_TEXT/UTF8
  162. Codec ID/Info                            : UTF-8 Plain Text
  163. Duration                                 : 2 h 2 min
  164. Bit rate                                 : 41 b/s
  165. Count of elements                        : 1381
  166. Stream size                              : 37.3 KiB (0%)
  167. Language                                 : Finnish
  168. Default                                  : No
  169. Forced                                   : No

  170. Text #11
  171. ID                                       : 13
  172. Format                                   : UTF-8
  173. Codec ID                                 : S_TEXT/UTF8
  174. Codec ID/Info                            : UTF-8 Plain Text
  175. Duration                                 : 2 h 2 min
  176. Bit rate                                 : 43 b/s
  177. Count of elements                        : 1369
  178. Stream size                              : 39.0 KiB (0%)
  179. Language                                 : French
  180. Default                                  : No
  181. Forced                                   : No

  182. Text #12
  183. ID                                       : 14
  184. Format                                   : UTF-8
  185. Codec ID                                 : S_TEXT/UTF8
  186. Codec ID/Info                            : UTF-8 Plain Text
  187. Duration                                 : 2 h 2 min
  188. Bit rate                                 : 66 b/s
  189. Count of elements                        : 1382
  190. Stream size                              : 59.9 KiB (0%)
  191. Language                                 : Hebrew
  192. Default                                  : No
  193. Forced                                   : No

  194. Text #13
  195. ID                                       : 15
  196. Format                                   : UTF-8
  197. Codec ID                                 : S_TEXT/UTF8
  198. Codec ID/Info                            : UTF-8 Plain Text
  199. Duration                                 : 2 h 2 min
  200. Bit rate                                 : 40 b/s
  201. Count of elements                        : 1382
  202. Stream size                              : 35.9 KiB (0%)
  203. Language                                 : Hungarian
  204. Default                                  : No
  205. Forced                                   : No

  206. Text #14
  207. ID                                       : 16
  208. Format                                   : UTF-8
  209. Codec ID                                 : S_TEXT/UTF8
  210. Codec ID/Info                            : UTF-8 Plain Text
  211. Duration                                 : 2 h 2 min
  212. Bit rate                                 : 40 b/s
  213. Count of elements                        : 1379
  214. Stream size                              : 36.3 KiB (0%)
  215. Language                                 : Indonesian
  216. Default                                  : No
  217. Forced                                   : No

  218. Text #15
  219. ID                                       : 17
  220. Format                                   : UTF-8
  221. Codec ID                                 : S_TEXT/UTF8
  222. Codec ID/Info                            : UTF-8 Plain Text
  223. Duration                                 : 2 h 2 min
  224. Bit rate                                 : 41 b/s
  225. Count of elements                        : 1376
  226. Stream size                              : 37.4 KiB (0%)
  227. Language                                 : Italian
  228. Default                                  : No
  229. Forced                                   : No

  230. Text #16
  231. ID                                       : 18
  232. Format                                   : UTF-8
  233. Codec ID                                 : S_TEXT/UTF8
  234. Codec ID/Info                            : UTF-8 Plain Text
  235. Duration                                 : 2 h 2 min
  236. Bit rate                                 : 40 b/s
  237. Count of elements                        : 1285
  238. Stream size                              : 36.5 KiB (0%)
  239. Language                                 : Japanese
  240. Default                                  : No
  241. Forced                                   : No

  242. Text #17
  243. ID                                       : 19
  244. Format                                   : UTF-8
  245. Codec ID                                 : S_TEXT/UTF8
  246. Codec ID/Info                            : UTF-8 Plain Text
  247. Duration                                 : 2 h 0 min
  248. Bit rate                                 : 79 b/s
  249. Count of elements                        : 1835
  250. Stream size                              : 70.0 KiB (0%)
  251. Language                                 : Korean
  252. Default                                  : No
  253. Forced                                   : No

  254. Text #18
  255. ID                                       : 20
  256. Format                                   : UTF-8
  257. Codec ID                                 : S_TEXT/UTF8
  258. Codec ID/Info                            : UTF-8 Plain Text
  259. Duration                                 : 2 h 2 min
  260. Bit rate                                 : 42 b/s
  261. Count of elements                        : 1379
  262. Stream size                              : 37.7 KiB (0%)
  263. Language                                 : Norwegian
  264. Default                                  : No
  265. Forced                                   : No

  266. Text #19
  267. ID                                       : 21
  268. Format                                   : UTF-8
  269. Codec ID                                 : S_TEXT/UTF8
  270. Codec ID/Info                            : UTF-8 Plain Text
  271. Duration                                 : 2 h 2 min
  272. Bit rate                                 : 39 b/s
  273. Count of elements                        : 1377
  274. Stream size                              : 35.5 KiB (0%)
  275. Language                                 : Dutch
  276. Default                                  : No
  277. Forced                                   : No

  278. Text #20
  279. ID                                       : 22
  280. Format                                   : UTF-8
  281. Codec ID                                 : S_TEXT/UTF8
  282. Codec ID/Info                            : UTF-8 Plain Text
  283. Duration                                 : 2 h 2 min
  284. Bit rate                                 : 33 b/s
  285. Count of elements                        : 1378
  286. Stream size                              : 30.3 KiB (0%)
  287. Language                                 : Polish
  288. Default                                  : No
  289. Forced                                   : No

  290. Text #21
  291. ID                                       : 23
  292. Format                                   : UTF-8
  293. Codec ID                                 : S_TEXT/UTF8
  294. Codec ID/Info                            : UTF-8 Plain Text
  295. Duration                                 : 2 h 2 min
  296. Bit rate                                 : 41 b/s
  297. Count of elements                        : 1380
  298. Stream size                              : 36.8 KiB (0%)
  299. Language                                 : Portuguese
  300. Default                                  : No
  301. Forced                                   : No

  302. Text #22
  303. ID                                       : 24
  304. Format                                   : UTF-8
  305. Codec ID                                 : S_TEXT/UTF8
  306. Codec ID/Info                            : UTF-8 Plain Text
  307. Duration                                 : 2 h 2 min
  308. Bit rate                                 : 39 b/s
  309. Count of elements                        : 1378
  310. Stream size                              : 35.7 KiB (0%)
  311. Title                                    : Brazilian
  312. Language                                 : Portuguese
  313. Default                                  : No
  314. Forced                                   : No

  315. Text #23
  316. ID                                       : 25
  317. Format                                   : UTF-8
  318. Codec ID                                 : S_TEXT/UTF8
  319. Codec ID/Info                            : UTF-8 Plain Text
  320. Duration                                 : 2 h 2 min
  321. Bit rate                                 : 48 b/s
  322. Count of elements                        : 1546
  323. Stream size                              : 43.9 KiB (0%)
  324. Title                                    : Brazilian
  325. Language                                 : Portuguese
  326. Default                                  : No
  327. Forced                                   : No

  328. Text #24
  329. ID                                       : 26
  330. Format                                   : UTF-8
  331. Codec ID                                 : S_TEXT/UTF8
  332. Codec ID/Info                            : UTF-8 Plain Text
  333. Duration                                 : 2 h 2 min
  334. Bit rate                                 : 45 b/s
  335. Count of elements                        : 1382
  336. Stream size                              : 40.8 KiB (0%)
  337. Language                                 : Romanian
  338. Default                                  : No
  339. Forced                                   : No

  340. Text #25
  341. ID                                       : 27
  342. Format                                   : UTF-8
  343. Codec ID                                 : S_TEXT/UTF8
  344. Codec ID/Info                            : UTF-8 Plain Text
  345. Duration                                 : 2 h 2 min
  346. Bit rate                                 : 67 b/s
  347. Count of elements                        : 1384
  348. Stream size                              : 60.1 KiB (0%)
  349. Language                                 : Russian
  350. Default                                  : No
  351. Forced                                   : No

  352. Text #26
  353. ID                                       : 28
  354. Format                                   : UTF-8
  355. Codec ID                                 : S_TEXT/UTF8
  356. Codec ID/Info                            : UTF-8 Plain Text
  357. Duration                                 : 2 h 2 min
  358. Bit rate                                 : 43 b/s
  359. Count of elements                        : 1380
  360. Stream size                              : 38.8 KiB (0%)
  361. Language                                 : Swedish
  362. Default                                  : No
  363. Forced                                   : No

  364. Text #27
  365. ID                                       : 29
  366. Format                                   : UTF-8
  367. Codec ID                                 : S_TEXT/UTF8
  368. Codec ID/Info                            : UTF-8 Plain Text
  369. Duration                                 : 2 h 2 min
  370. Bit rate                                 : 113 b/s
  371. Count of elements                        : 1439
  372. Stream size                              : 102 KiB (0%)
  373. Language                                 : Thai
  374. Default                                  : No
  375. Forced                                   : No

  376. Text #28
  377. ID                                       : 30
  378. Format                                   : UTF-8
  379. Codec ID                                 : S_TEXT/UTF8
  380. Codec ID/Info                            : UTF-8 Plain Text
  381. Duration                                 : 2 h 2 min
  382. Bit rate                                 : 151 b/s
  383. Count of elements                        : 1870
  384. Stream size                              : 136 KiB (0%)
  385. Language                                 : Thai
  386. Default                                  : No
  387. Forced                                   : No

  388. Text #29
  389. ID                                       : 31
  390. Format                                   : UTF-8
  391. Codec ID                                 : S_TEXT/UTF8
  392. Codec ID/Info                            : UTF-8 Plain Text
  393. Duration                                 : 2 h 2 min
  394. Bit rate                                 : 42 b/s
  395. Count of elements                        : 1381
  396. Stream size                              : 38.2 KiB (0%)
  397. Language                                 : Turkish
  398. Default                                  : No
  399. Forced                                   : No

  400. Text #30
  401. ID                                       : 32
  402. Format                                   : UTF-8
  403. Codec ID                                 : S_TEXT/UTF8
  404. Codec ID/Info                            : UTF-8 Plain Text
  405. Duration                                 : 2 h 2 min
  406. Bit rate                                 : 59 b/s
  407. Count of elements                        : 1380
  408. Stream size                              : 53.0 KiB (0%)
  409. Language                                 : Vietnamese
  410. Default                                  : No
  411. Forced                                   : No

  412. Text #31
  413. ID                                       : 33
  414. Format                                   : UTF-8
  415. Codec ID                                 : S_TEXT/UTF8
  416. Codec ID/Info                            : UTF-8 Plain Text
  417. Duration                                 : 2 h 2 min
  418. Bit rate                                 : 42 b/s
  419. Count of elements                        : 1385
  420. Stream size                              : 38.3 KiB (0%)
  421. Title                                    : Simplified
  422. Language                                 : Chinese
  423. Default                                  : No
  424. Forced                                   : No

  425. Text #32
  426. ID                                       : 34
  427. Format                                   : UTF-8
  428. Codec ID                                 : S_TEXT/UTF8
  429. Codec ID/Info                            : UTF-8 Plain Text
  430. Duration                                 : 2 h 2 min
  431. Bit rate                                 : 43 b/s
  432. Count of elements                        : 1404
  433. Stream size                              : 38.7 KiB (0%)
  434. Title                                    : Traditional
  435. Language                                 : Chinese
  436. Default                                  : No
  437. Forced                                   : No
复制代码

柳烈的音乐专辑 Tune.in.for.Love.2019.KOREAN.1080p.NF.WEBRip.DDP5.1.x264-iKA 4.34GB-2.png 柳烈的音乐专辑 Tune.in.for.Love.2019.KOREAN.1080p.NF.WEBRip.DDP5.1.x264-iKA 4.34GB-3.png 柳烈的音乐专辑 Tune.in.for.Love.2019.KOREAN.1080p.NF.WEBRip.DDP5.1.x264-iKA 4.34GB-4.png







VIP会员免费任意下载本站所有资源!---点击开通
回复

使用道具 举报

懒得打字嘛,点击右侧快捷回复 【右侧内容,后台自定义】
您需要登录后才可以回帖 登录 | 立即注册

本版积分规则

QQ|Archiver|手机版|小黑屋| 中国高清网 |网站地图

GMT+8, 2019-11-20 21:48 , Processed in 0.301281 second(s), 37 queries .

Powered by HDchina X3.4

Copyright 2017-2019©HDchina.All right reserved

返回顶部 联系我们