查看: 44|回复: 2

[剧情片] 无常 This.Transient.Life.1970.1080p.BluRay.x264-GHOULS 9.84GB

[复制链接]

 成长值: 3140

级别:资源管理组

注册时间
2017-10-20
最后登录
2019-11-11
听众
1
收听
0
主题
86761
蓝光币
61613 枚
贡献
11119 点
发表于 2019-11-5 21:25:09 | 显示全部楼层 |阅读模式
无常 This.Transient.Life.1970.1080p.BluRay.x264-GHOULS 9.84GB-1.png

译  名 无常 / This Transient Life
片  名 無常
年  代 1970
产  地 日本
类  别 剧情
语  言 日语
上映日期 1970-08-08
IMDb评分  7.9/10 from 728 users
IMDb链接  http://www.imdb.com/title/tt0128364
豆瓣评分 7.8/10 from 877 users
豆瓣链接 https://movie.douban.com/subject/1440359/
片  长 143 分钟
导  演 实相寺昭雄 Akio Jissoji
编  剧 石堂淑朗 Toshir? Ishid?
主  演 田村亮
       佐々木功
       田中三津子


标  签 日本 | 情色 | 日本电影 | 実相寺昭雄 | 人性 | 伦理 | 实相寺昭雄 | 1970

简  介  

  经营批发买卖的大阪日野家,女儿百合(司美智子 饰)已到适嫁年龄,却迟迟未选定夫家,怙恃为此甚为焦虑。儿子正夫(田村亮 饰)无意继续家业,对妹习也没任何爱好,只醉心于佛像的研讨。他对姐姐存有深深的迷恋,并不希望姐姐嫁人,是以常与怙恃发生争持。
  某日日野夫妻围出,助手岩下(花之本寿 饰)亦回家探亲,家中只剩姐弟二人。夜晚,姐弟终究冲破忌讳,这层隐蔽关系更被寺院主持荻野(冈村春彦 饰)。未几百合出现妊娠反应,为掩人线人,正夫设想让怙恃赞成将姐姐嫁给岩下,而自己则在荻野的倡议下分开故乡,前往佛像雕塑师森康高(冈田英次 饰)处妹习雕镂。一年后,正夫回抵故乡,与姐姐旧情复燃,岩下无意间发现姐弟俩的奥秘,悲伤之余走上了不归之路……
  1. Video
  2. ID                                       : 1
  3. Format                                   : AVC
  4. Format/Info                              : Advanced Video Codec
  5. Format profile                           : High@L4
  6. Format settings                          : CABAC / 5 Ref Frames
  7. Format settings, CABAC                   : Yes
  8. Format settings, Reference frames        : 5 frames
  9. Codec ID                                 : V_MPEG4/ISO/AVC
  10. Duration                                 : 2 h 23 min
  11. Bit rate                                 : 9 106 kb/s
  12. Width                                    : 1 488 pixels
  13. Height                                   : 1 080 pixels
  14. Display aspect ratio                     : 1.378
  15. Frame rate mode                          : Constant
  16. Frame rate                               : 23.976 (24000/1001) FPS
  17. Color space                              : YUV
  18. Chroma subsampling                       : 4:2:0
  19. Bit depth                                : 8 bits
  20. Scan type                                : Progressive
  21. Bits/(Pixel*Frame)                       : 0.236
  22. Stream size                              : 9.14 GiB (93%)
  23. Writing library                          : x264 core 158 r2984 3759fcb
  24. Encoding settings                        : cabac=1 / ref=5 / deblock=1:-3:-3 / analyse=0x3:0x133 / me=umh / subme=9 / psy=1 / psy_rd=1.00:0.00 / mixed_ref=1 / me_range=24 / chroma_me=1 / trellis=1 / 8x8dct=1 / cqm=0 / deadzone=21,11 / fast_pskip=0 / chroma_qp_offset=-2 / threads=24 / lookahead_threads=4 / sliced_threads=0 / nr=0 / decimate=1 / interlaced=0 / bluray_compat=0 / constrained_intra=0 / bframes=8 / b_pyramid=2 / b_adapt=2 / b_bias=0 / direct=3 / weightb=1 / open_gop=0 / weightp=2 / keyint=250 / keyint_min=23 / scenecut=40 / intra_refresh=0 / rc_lookahead=60 / rc=2pass / mbtree=1 / bitrate=9106 / ratetol=1.0 / qcomp=0.60 / qpmin=0 / qpmax=69 / qpstep=4 / cplxblur=20.0 / qblur=0.5 / vbv_maxrate=62500 / vbv_bufsize=78125 / nal_hrd=none / filler=0 / ip_ratio=1.40 / aq=1:1.00
  25. Default                                  : Yes
  26. Forced                                   : No

  27. Audio
  28. ID                                       : 2
  29. Format                                   : FLAC
  30. Format/Info                              : Free Lossless Audio Codec
  31. Codec ID                                 : A_FLAC
  32. Duration                                 : 2 h 23 min
  33. Bit rate mode                            : Variable
  34. Bit rate                                 : 697 kb/s
  35. Channel(s)                               : 1 channel
  36. Channel layout                           : C
  37. Sampling rate                            : 48.0 kHz
  38. Frame rate                               : 10.417 FPS (4608 SPF)
  39. Bit depth                                : 24 bits
  40. Compression mode                         : Lossless
  41. Stream size                              : 716 MiB (7%)
  42. Writing library                          : Lavf58.29.100
  43. Language                                 : Japanese
  44. Default                                  : Yes
  45. Forced                                   : No

  46. Text
  47. ID                                       : 3
  48. Format                                   : UTF-8
  49. Codec ID                                 : S_TEXT/UTF8
  50. Codec ID/Info                            : UTF-8 Plain Text
  51. Duration                                 : 2 h 16 min
  52. Bit rate                                 : 24 b/s
  53. Count of elements                        : 713
  54. Stream size                              : 24.2 KiB (0%)
  55. Language                                 : English
  56. Default                                  : Yes
  57. Forced                                   : No

  58. Menu
  59. 00:00:00.000                             : en:Chapter 01
  60. 00:11:50.585                             : en:Chapter 02
  61. 00:24:05.486                             : en:Chapter 03
  62. 00:37:14.732                             : en:Chapter 04
  63. 00:47:25.926                             : en:Chapter 05
  64. 00:59:55.217                             : en:Chapter 06
  65. 01:13:24.317                             : en:Chapter 07
  66. 01:25:19.156                             : en:Chapter 08
  67. 01:35:36.522                             : en:Chapter 09
  68. 01:45:48.759                             : en:Chapter 10
  69. 02:00:15.375                             : en:Chapter 11
  70. 02:10:16.517                             : en:Chapter 12
复制代码

无常 This.Transient.Life.1970.1080p.BluRay.x264-GHOULS 9.84GB-2.png







VIP会员免费任意下载本站所有资源!---点击开通
回复

使用道具 举报

级别:初级观众 Lv.1

注册时间
2019-8-21
最后登录
2019-11-12
听众
0
收听
0
主题
0
蓝光币
11 枚
贡献
0 点
发表于 2019-11-5 22:20:15 | 显示全部楼层

谢谢楼主无私奉献
VIP会员免费任意下载本站所有资源!---点击开通
回复

使用道具 举报

级别:普通观众 Lv.2

注册时间
2019-11-4
最后登录
2019-11-13
听众
0
收听
0
主题
0
蓝光币
10 枚
贡献
0 点
发表于 7 天前 | 显示全部楼层
楼主发贴辛苦了,谢谢楼主分享!我觉得中国高清电影网是注册对了!
VIP会员免费任意下载本站所有资源!---点击开通
回复

使用道具 举报

懒得打字嘛,点击右侧快捷回复 【右侧内容,后台自定义】
您需要登录后才可以回帖 登录 | 立即注册

本版积分规则

QQ|Archiver|手机版|小黑屋| 中国高清网 |网站地图 

GMT+8, 2019-11-13 17:13 , Processed in 0.235617 second(s), 37 queries .

Powered by HDchina X3.4

Copyright 2017-2019©HDchina.All right reserved

返回顶部 联系我们