查看: 30|回复: 0

[冒险片] 爱探险的朵拉:消失的黄金城 Dora.and.the.Lost.City.of.Gold.2019.1080p.WEB-DL.DD5.1.H264-FGT 3.94GB

[复制链接]

 成长值: 3140

级别:资源管理组

注册时间
2017-10-20
最后登录
2019-11-11
听众
1
收听
0
主题
86761
蓝光币
61613 枚
贡献
11119 点
发表于 2019-11-5 21:22:55 | 显示全部楼层 |阅读模式
爱探险的朵拉:消失的黄金城 Dora.and.the.Lost.City.of.Gold.2019.1080p.WEB-DL.DD5.1.H264-FGT 3.94GB-1.png

译  名 爱探险的朵拉:消失的黄金城 / Dora the Explorer / 朵拉与失落的黄金城 / 爱探险的Dora:勇闯黄金迷城(港) / 爱探险的朵拉
片  名 Dora and the Lost City of Gold
年  代 2019
产  地 美国
类  别 冒险
语  言 英语
上映日期 2019-08-09(美国)
IMDb评分  6.1/10 from 6012 users
IMDb链接  https://www.imdb.com/title/tt7547410
豆瓣评分 5.5/10 from 218 users
豆瓣链接 https://movie.douban.com/subject/27179713/
片  长 100分钟
导  演 詹姆斯·博宾 James Bobin
编  剧 马修·罗宾逊 Matthew Robinson / 尼古拉斯·斯托勒 Nicholas Stoller / 克里斯·吉福德 Chris Gifford / 瓦莱丽·沃尔什 Valerie Walsh / 埃里克·韦纳 Eric Weiner / 汤姆·惠勒 Tom Wheeler
主  演 伊莎贝拉·莫奈 Isabela Moner
       迈克尔·佩纳 Michael Pe?a
       本尼西奥·德尔·托罗 Benicio del Toro
       考莉安卡·基尔彻 Q'orianka Kilcher
       伊娃·朗格利亚 Eva Longoria
       特穆拉·莫里森 Temuera Morrison
       欧赫尼奥·德尔维斯 Eugenio Derbez
       玛德琳·麦登 Madeleine Madden
       艾德里安娜·巴拉扎 Adriana Barraza
       伊瑟拉·维加 Isela Vega
       克里斯托弗·卡比 Christopher Kirby
       尼古拉斯·库姆 Nicholas Coombe
       布拉登·刘易斯 Braden Lewis
       杰弗里·沃尔伯格 Jeffrey Wahlberg


标  签 冒险 | 美国 | 2019 | 爱探险的朵拉 | 奇异 | 魔幻 | 派拉蒙 | 搞笑

简  介  

  朵拉和怙恃一向生活在森林中,直到有天她的怙恃决议去寻觅传闻中失落的黄金城,而朵拉则被迫回到都会,与表哥迭戈一家人同住,起头了一段啼笑皆非的高中生活。
  在一次妹校构造的参观活动中,朵拉和朋友们被奥秘人士绑架,他们被带到了森林深处。回到森林的朵拉,展现出了比其他人更强的保存才能。她率领着小猴布茨,表哥迭戈,奥秘的森林专家和一群毫无野围经历的朋友们起头了一段惊险的冒险旅程。他们不但要在幻化莫测的森林中保存下来,更要从好人手中救出朵拉的怙恃,破解黄金城的奥秘。
  1. Video
  2. ID                                       : 1
  3. Format                                   : AVC
  4. Format/Info                              : Advanced Video Codec
  5. Format profile                           : High@L4
  6. Format settings                          : CABAC / 4 Ref Frames
  7. Format settings, CABAC                   : Yes
  8. Format settings, Reference frames        : 4 frames
  9. Codec ID                                 : V_MPEG4/ISO/AVC
  10. Duration                                 : 1 h 42 min
  11. Bit rate                                 : 5 126 kb/s
  12. Width                                    : 1 920 pixels
  13. Height                                   : 1 080 pixels
  14. Display aspect ratio                     : 16:9
  15. Frame rate mode                          : Constant
  16. Frame rate                               : 23.976 FPS
  17. Color space                              : YUV
  18. Chroma subsampling                       : 4:2:0
  19. Bit depth                                : 8 bits
  20. Scan type                                : Progressive
  21. Bits/(Pixel*Frame)                       : 0.103
  22. Stream size                              : 3.67 GiB (93%)
  23. Title                                    : Dora.and.the.Lost.City.of.Gold.2019.1080p.WEB-DL.DD5.1.H264-FGT
  24. Language                                 : English
  25. Default                                  : Yes
  26. Forced                                   : No
  27. Color range                              : Limited
  28. Color primaries                          : BT.709
  29. Transfer characteristics                 : BT.709
  30. Matrix coefficients                      : BT.709

  31. Audio
  32. ID                                       : 2
  33. Format                                   : AC-3
  34. Format/Info                              : Audio Coding 3
  35. Commercial name                          : Dolby Digital
  36. Codec ID                                 : A_AC3
  37. Duration                                 : 1 h 42 min
  38. Bit rate mode                            : Constant
  39. Bit rate                                 : 384 kb/s
  40. Channel(s)                               : 6 channels
  41. Channel layout                           : L R C LFE Ls Rs
  42. Sampling rate                            : 48.0 kHz
  43. Frame rate                               : 31.250 FPS (1536 SPF)
  44. Bit depth                                : 16 bits
  45. Compression mode                         : Lossy
  46. Stream size                              : 281 MiB (7%)
  47. Title                                    : Dora.and.the.Lost.City.of.Gold.2019.1080p.WEB-DL.DD5.1.H264-FGT
  48. Language                                 : English
  49. Service kind                             : Complete Main
  50. Default                                  : Yes
  51. Forced                                   : No

  52. Menu
  53. 00:00:00.000                             : en:Chapter 1
  54. 00:04:52.417                             : en:Chapter 2
  55. 00:09:49.088                             : en:Chapter 3
  56. 00:15:35.642                             : en:Chapter 4
  57. 00:20:26.766                             : en:Chapter 5
  58. 00:25:47.836                             : en:Chapter 6
  59. 00:35:15.778                             : en:Chapter 7
  60. 00:42:53.734                             : en:Chapter 8
  61. 00:47:13.659                             : en:Chapter 9
  62. 00:52:57.878                             : en:Chapter 10
  63. 00:55:41.457                             : en:Chapter 11
  64. 01:01:02.652                             : en:Chapter 12
  65. 01:06:11.293                             : en:Chapter 13
  66. 01:10:23.128                             : en:Chapter 14
  67. 01:13:52.128                             : en:Chapter 15
  68. 01:18:26.317                             : en:Chapter 16
  69. 01:22:39.485                             : en:Chapter 17
  70. 01:32:57.311                             : en:Chapter 18
  71. 01:38:30.227                             : en:Chapter 19
复制代码

爱探险的朵拉:消失的黄金城 Dora.and.the.Lost.City.of.Gold.2019.1080p.WEB-DL.DD5.1.H264-FGT 3.94GB-2.png 爱探险的朵拉:消失的黄金城 Dora.and.the.Lost.City.of.Gold.2019.1080p.WEB-DL.DD5.1.H264-FGT 3.94GB-3.png 爱探险的朵拉:消失的黄金城 Dora.and.the.Lost.City.of.Gold.2019.1080p.WEB-DL.DD5.1.H264-FGT 3.94GB-4.png






VIP会员免费任意下载本站所有资源!---点击开通
回复

使用道具 举报

懒得打字嘛,点击右侧快捷回复 【右侧内容,后台自定义】
您需要登录后才可以回帖 登录 | 立即注册

本版积分规则

QQ|Archiver|手机版|小黑屋| 中国高清网 |网站地图 

GMT+8, 2019-11-13 17:23 , Processed in 33.295891 second(s), 37 queries .

Powered by HDchina X3.4

Copyright 2017-2019©HDchina.All right reserved

返回顶部 联系我们