查看: 17|回复: 0

[西部片] 隆重山 Eminence.Hill.2019.1080p.WEB-DL.DD5.1.H264-FGT 3.48GB

[复制链接]

 成长值: 3230

级别:资源管理组

注册时间
2017-10-20
最后登录
2019-11-21
听众
1
收听
0
主题
87390
蓝光币
63616 枚
贡献
11749 点
发表于 2019-11-5 21:20:36 | 显示全部楼层 |阅读模式
盛大山 Eminence.Hill.2019.1080p.WEB-DL.DD5.1.H264-FGT 3.48GB-1.png

译  名 盛大山
片  名 Eminence Hill
年  代 2019
产  地 美国
类  别 西部
语  言 英语
上映日期 2019-11-01(美国)
IMDb评分  8.5/10 from 12 users
IMDb链接  https://www.imdb.com/title/tt9135272
豆瓣评分 0/10 from 0 users
豆瓣链接 https://movie.douban.com/subject/34871921/
片  长 100分钟
导  演 Robert Conway
编  剧 Robert Conway / Owen Conway
主  演 巴里·柯宾 Barry Corbin
       多米尼克·斯万 Dominique Swain
       兰斯·亨利克森 Lance Henriksen


简  介  

  A trail of revenge leads a notorious killer and a lawman to m.77mi.cc a town of fanatics. Blood will flow.
  1. Video
  2. ID                                       : 1
  3. Format                                   : AVC
  4. Format/Info                              : Advanced Video Codec
  5. Format profile                           : High@L4
  6. Format settings                          : CABAC / 5 Ref Frames
  7. Format settings, CABAC                   : Yes
  8. Format settings, Reference frames        : 5 frames
  9. Codec ID                                 : V_MPEG4/ISO/AVC
  10. Duration                                 : 1 h 40 min
  11. Bit rate                                 : 4 599 kb/s
  12. Width                                    : 1 920 pixels
  13. Height                                   : 790 pixels
  14. Display aspect ratio                     : 2.40:1
  15. Frame rate mode                          : Constant
  16. Frame rate                               : 23.976 FPS
  17. Color space                              : YUV
  18. Chroma subsampling                       : 4:2:0
  19. Bit depth                                : 8 bits
  20. Scan type                                : Progressive
  21. Bits/(Pixel*Frame)                       : 0.126
  22. Stream size                              : 3.21 GiB (92%)
  23. Title                                    : Eminence.Hill.2019.1080p.WEB-DL.DD5.1.H264-FGT
  24. Language                                 : English
  25. Default                                  : Yes
  26. Forced                                   : No
  27. Color range                              : Limited
  28. Color primaries                          : BT.709
  29. Transfer characteristics                 : BT.709
  30. Matrix coefficients                      : BT.709

  31. Audio
  32. ID                                       : 2
  33. Format                                   : AC-3
  34. Format/Info                              : Audio Coding 3
  35. Commercial name                          : Dolby Digital
  36. Codec ID                                 : A_AC3
  37. Duration                                 : 1 h 40 min
  38. Bit rate mode                            : Constant
  39. Bit rate                                 : 384 kb/s
  40. Channel(s)                               : 6 channels
  41. Channel layout                           : L R C LFE Ls Rs
  42. Sampling rate                            : 48.0 kHz
  43. Frame rate                               : 31.250 FPS (1536 SPF)
  44. Bit depth                                : 16 bits
  45. Compression mode                         : Lossy
  46. Stream size                              : 275 MiB (8%)
  47. Title                                    : Eminence.Hill.2019.1080p.WEB-DL.DD5.1.H264-FGT
  48. Language                                 : English
  49. Service kind                             : Complete Main
  50. Default                                  : Yes
  51. Forced                                   : No

  52. Text
  53. ID                                       : 3
  54. Format                                   : UTF-8
  55. Codec ID                                 : S_TEXT/UTF8
  56. Codec ID/Info                            : UTF-8 Plain Text
  57. Duration                                 : 1 h 39 min
  58. Bit rate                                 : 75 b/s
  59. Count of elements                        : 1522
  60. Stream size                              : 54.7 KiB (0%)
  61. Language                                 : English
  62. Default                                  : Yes
  63. Forced                                   : No

  64. Menu
  65. 00:00:00.000                             : en:1
  66. 00:14:39.295                             : en:2
  67. 00:25:05.504                             : en:3
  68. 00:37:58.359                             : en:4
  69. 00:49:19.998                             : en:5
  70. 01:01:59.340                             : en:6
  71. 01:14:27.336                             : en:7
  72. 01:24:10.793                             : en:8
  73. 01:35:07.157                             : en:9
复制代码

盛大山 Eminence.Hill.2019.1080p.WEB-DL.DD5.1.H264-FGT 3.48GB-2.png 盛大山 Eminence.Hill.2019.1080p.WEB-DL.DD5.1.H264-FGT 3.48GB-3.png 盛大山 Eminence.Hill.2019.1080p.WEB-DL.DD5.1.H264-FGT 3.48GB-4.png







VIP会员免费任意下载本站所有资源!---点击开通
回复

使用道具 举报

懒得打字嘛,点击右侧快捷回复 【右侧内容,后台自定义】
您需要登录后才可以回帖 登录 | 立即注册

本版积分规则

QQ|Archiver|手机版|小黑屋| 中国高清网 |网站地图

GMT+8, 2019-11-22 06:10 , Processed in 0.208258 second(s), 37 queries .

Powered by HDchina X3.4

Copyright 2017-2019©HDchina.All right reserved

返回顶部 联系我们