查看: 28|回复: 0

[剧情片] 官方机密/官方秘密 Official.Secrets.2019.1080p.WEB-DL.DD5.1.H264-FGT 3.89GB

[复制链接]

 成长值: 3160

级别:资源管理组

注册时间
2017-10-20
最后登录
2019-11-15
听众
1
收听
0
主题
86780
蓝光币
61948 枚
贡献
11138 点
发表于 2019-11-5 21:18:19 | 显示全部楼层 |阅读模式
211747glmmv88vfkfigkks.png

译  名 官方机密 / 官方奥秘 / 瞞天機密(台)
片  名 Official Secrets
年  代 2019
产  地 英国 / 美国
类  别 剧情 / 惊悚 / 列传
语  言 英语
上映日期 2019-01-28(圣丹斯电影节) / 2019-08-30(美国)
IMDb评分  7.4/10 from 2917 users
IMDb链接  https://www.imdb.com/title/tt5431890
豆瓣评分 7.6/10 from 222 users
豆瓣链接 https://movie.douban.com/subject/26718799/
片  长 112分钟(圣丹斯电影节)
导  演 加文·胡德 Gavin Hood
编  剧 加文·胡德 Gavin Hood / Gregory Bernstein / Sara Bernstein / Marcia Mitchell / Thomas Mitchell
主  演 凯拉·奈特莉 Keira Knightley
       马特·史姑娘 Matt Smith
       拉尔夫·费因斯 Ralph Fiennes
       马修·古迪 Matthew Goode
       因迪拉·瓦玛 Indira Varma
       瑞斯·伊凡斯 Rhys Ifans
       康勒斯·希尔 Conleth Hill
       玛安娜·本灵 MyAnna Buring
       塔姆辛·格雷格 Tamsin Greig
       哈蒂·莫拉汉 Hattie Morahan
       杰克·法辛 Jack Farthing
       邵恩·杜里 Shaun Dooley
       约翰·赫夫南 John Heffernan
       雷·潘莎基 Ray Panthaki
       莫妮卡·杜兰 Monica Dolan
       克里斯·拉金 Chris Larkin
       肯尼思·库兰汉姆 Kenneth Cranham
       彼得·吉尼斯 Peter Guinness
       克莱夫·弗朗西斯 Clive Francis
       哈娜可福特曼 Hanako Footman
       克里斯·雷利 Chris Reilly
       马诺伊·阿南德 Manoj Anand
       詹妮·迪 Janie Dee
       乔·惠特利 Jo Wheatley
       亚当·巴克里 Adam Bakri
       马克·普雷斯顿 Mark Preston
       菲奥娜·斯金纳尔 Fiona Skinner
       保罗·布莱克维尔 Paul Blackwell


标  签 英国 | 剧情 | KeiraKnightley | 2019 | 美国 | 电影 | 惊悚 | MatthewGoode

简  介  

  改编自实在事务,聚焦前英国情报机构政府通讯总部的传译员Katharine Gun,她在2003年伊拉克战争爆发前夜泄露了一份国家平安局备忘录,曝光美国和英国结合对结合国安理睬成员停止的不法特务活动。本片的剧原本自基于此实在事务的纪实文妹作品《The Spy Who Tried To Stop A War: Katharine Gun And The Secret Plot To Sanction The Iraq Invasion》。
  1. Video
  2. ID                                       : 1
  3. Format                                   : AVC
  4. Format/Info                              : Advanced Video Codec
  5. Format profile                           : High@L4
  6. Format settings                          : CABAC / 5 Ref Frames
  7. Format settings, CABAC                   : Yes
  8. Format settings, Reference frames        : 5 frames
  9. Codec ID                                 : V_MPEG4/ISO/AVC
  10. Duration                                 : 1 h 52 min
  11. Bit rate                                 : 4 581 kb/s
  12. Width                                    : 1 916 pixels
  13. Height                                   : 800 pixels
  14. Display aspect ratio                     : 2.40:1
  15. Frame rate mode                          : Constant
  16. Frame rate                               : 23.976 (24000/1001) FPS
  17. Color space                              : YUV
  18. Chroma subsampling                       : 4:2:0
  19. Bit depth                                : 8 bits
  20. Scan type                                : Progressive
  21. Bits/(Pixel*Frame)                       : 0.125
  22. Stream size                              : 3.59 GiB (92%)
  23. Title                                    : Official Secrets.2019.1080p.WEB-DL.DD5.1.H264-FGT
  24. Language                                 : English
  25. Default                                  : Yes
  26. Forced                                   : No
  27. Color range                              : Limited
  28. Color primaries                          : BT.709
  29. Transfer characteristics                 : BT.709
  30. Matrix coefficients                      : BT.709

  31. Audio
  32. ID                                       : 2
  33. Format                                   : AC-3
  34. Format/Info                              : Audio Coding 3
  35. Commercial name                          : Dolby Digital
  36. Codec ID                                 : A_AC3
  37. Duration                                 : 1 h 52 min
  38. Bit rate mode                            : Constant
  39. Bit rate                                 : 384 kb/s
  40. Channel(s)                               : 6 channels
  41. Channel layout                           : L R C LFE Ls Rs
  42. Sampling rate                            : 48.0 kHz
  43. Frame rate                               : 31.250 FPS (1536 SPF)
  44. Bit depth                                : 16 bits
  45. Compression mode                         : Lossy
  46. Stream size                              : 308 MiB (8%)
  47. Title                                    : Official Secrets.2019.1080p.WEB-DL.DD5.1.H264-FGT
  48. Language                                 : English
  49. Service kind                             : Complete Main
  50. Default                                  : Yes
  51. Forced                                   : No

  52. Menu
  53. 00:00:00.000                             : en:Chapter 1
  54. 00:07:31.534                             : en:Chapter 2
  55. 00:12:11.939                             : en:Chapter 3
  56. 00:16:52.511                             : en:Chapter 4
  57. 00:24:28.008                             : en:Chapter 5
  58. 00:33:55.116                             : en:Chapter 6
  59. 00:36:56.338                             : en:Chapter 7
  60. 00:43:38.280                             : en:Chapter 8
  61. 00:49:21.957                             : en:Chapter 9
  62. 01:00:42.429                             : en:Chapter 10
  63. 01:08:37.028                             : en:Chapter 11
  64. 01:15:35.279                             : en:Chapter 12
  65. 01:23:16.822                             : en:Chapter 13
  66. 01:29:14.179                             : en:Chapter 14
  67. 01:37:10.279                             : en:Chapter 15
  68. 01:45:51.090                             : en:Chapter 16
复制代码

官方机密/官方奥秘 Official.Secrets.2019.1080p.WEB-DL.DD5.1.H264-FGT 3.89GB-2.png 官方机密/官方奥秘 Official.Secrets.2019.1080p.WEB-DL.DD5.1.H264-FGT 3.89GB-3.png 官方机密/官方奥秘 Official.Secrets.2019.1080p.WEB-DL.DD5.1.H264-FGT 3.89GB-4.png







VIP会员免费任意下载本站所有资源!---点击开通
回复

使用道具 举报

懒得打字嘛,点击右侧快捷回复 【右侧内容,后台自定义】
您需要登录后才可以回帖 登录 | 立即注册

本版积分规则

QQ|Archiver|手机版|小黑屋| 中国高清网 |网站地图 

GMT+8, 2019-11-15 20:38 , Processed in 0.341025 second(s), 37 queries .

Powered by HDchina X3.4

Copyright 2017-2019©HDchina.All right reserved

返回顶部 联系我们