查看: 16|回复: 0

[剧情片] 伪装者/假冒者们 Pretenders.2018.1080p.WEB-DL.DD5.1.H264-FGT 3.29GB

[复制链接]

 成长值: 3230

级别:资源管理组

注册时间
2017-10-20
最后登录
2019-11-21
听众
1
收听
0
主题
87390
蓝光币
63614 枚
贡献
11749 点
发表于 2019-11-5 21:17:11 | 显示全部楼层 |阅读模式
MV5BNmMzY2JkZjItMmVjNy00ODI4LWEwZDgtYTA0ZjlmZGMxNWY4XkEyXkFqcGdeQXVyNDIxNTg5ODE@.jpg

译  名 伪装者 / 冒充者们 / 冒充者们
片  名 Pretenders
年  代 2018
产  地 美国
类  别 剧情
语  言 英语
上映日期 2018-11-24(都灵电影节)
IMDb评分  5.9/10 from 63 users
IMDb链接  https://www.imdb.com/title/tt2825596
豆瓣评分 0/10 from 0 users
豆瓣链接 https://movie.douban.com/subject/24753761/
导  演 詹姆斯·弗兰科 James Franco
编  剧 约什·布恩 Josh Boone
主  演 詹姆斯·弗兰科 James Franco
       朱诺·坦普尔 Juno Temple
       简·拉维 Jane Levy
       丹尼斯·奎德 Dennis Quaid
       穆斯塔法沙基尔 Mustafa Shakir
       安东尼·波罗夫斯基 Antoni Porowski
       布莱恩·考克斯 Brian Cox
       杰克·基默 Jack Kilmer
       沙梅克·摩尔 Shameik Moore
       泰勒·阿尔瓦雷兹 Tyler Alvarez
       杰奎琳·霍尽力克 Jacqueline Honulik
       Reema Sampat
       凯恩·马诺利 Cain Manoli
       乔丹·西奥多 Jordan Theodore
       Mario Brassard


标  签 美国 | 2017 | 美国电影 | 电影 | James·Franco | Dianna | Agron | 迈克尔·B·乔丹

简  介  

  A love triangle involving a photographer, a director and an actress.
  1. Video
  2. ID                                       : 1
  3. Format                                   : AVC
  4. Format/Info                              : Advanced Video Codec
  5. Format profile                           : High@L4
  6. Format settings                          : CABAC / 5 Ref Frames
  7. Format settings, CABAC                   : Yes
  8. Format settings, Reference frames        : 5 frames
  9. Codec ID                                 : V_MPEG4/ISO/AVC
  10. Duration                                 : 1 h 35 min
  11. Bit rate                                 : 4 571 kb/s
  12. Width                                    : 1 920 pixels
  13. Height                                   : 816 pixels
  14. Display aspect ratio                     : 2.35:1
  15. Frame rate mode                          : Constant
  16. Frame rate                               : 23.976 (24000/1001) FPS
  17. Color space                              : YUV
  18. Chroma subsampling                       : 4:2:0
  19. Bit depth                                : 8 bits
  20. Scan type                                : Progressive
  21. Bits/(Pixel*Frame)                       : 0.122
  22. Stream size                              : 3.04 GiB (92%)
  23. Title                                    : Pretenders.2018.1080p.WEB-DL.DD5.1.H264-FGT
  24. Language                                 : English
  25. Default                                  : Yes
  26. Forced                                   : No
  27. Color range                              : Limited
  28. Color primaries                          : BT.709
  29. Transfer characteristics                 : BT.709
  30. Matrix coefficients                      : BT.709

  31. Audio
  32. ID                                       : 2
  33. Format                                   : AC-3
  34. Format/Info                              : Audio Coding 3
  35. Commercial name                          : Dolby Digital
  36. Codec ID                                 : A_AC3
  37. Duration                                 : 1 h 35 min
  38. Bit rate mode                            : Constant
  39. Bit rate                                 : 384 kb/s
  40. Channel(s)                               : 6 channels
  41. Channel layout                           : L R C LFE Ls Rs
  42. Sampling rate                            : 48.0 kHz
  43. Frame rate                               : 31.250 FPS (1536 SPF)
  44. Bit depth                                : 16 bits
  45. Compression mode                         : Lossy
  46. Stream size                              : 261 MiB (8%)
  47. Title                                    : Pretenders.2018.1080p.WEB-DL.DD5.1.H264-FGT
  48. Language                                 : English
  49. Service kind                             : Complete Main
  50. Default                                  : Yes
  51. Forced                                   : No

  52. Text
  53. ID                                       : 3
  54. Format                                   : UTF-8
  55. Codec ID                                 : S_TEXT/UTF8
  56. Codec ID/Info                            : UTF-8 Plain Text
  57. Duration                                 : 1 h 28 min
  58. Bit rate                                 : 86 b/s
  59. Count of elements                        : 1358
  60. Stream size                              : 55.9 KiB (0%)
  61. Language                                 : English
  62. Default                                  : Yes
  63. Forced                                   : No

  64. Menu
  65. 00:00:00.000                             : en:1
  66. 00:15:00.000                             : en:2
  67. 00:30:00.000                             : en:3
  68. 00:45:00.000                             : en:4
  69. 01:00:00.000                             : en:5
  70. 01:15:00.000                             : en:6
复制代码

伪装者/冒充者们 Pretenders.2018.1080p.WEB-DL.DD5.1.H264-FGT 3.29GB-1.png 211613xsvr4v3zs23qireq.png 伪装者/冒充者们 Pretenders.2018.1080p.WEB-DL.DD5.1.H264-FGT 3.29GB-3.png







VIP会员免费任意下载本站所有资源!---点击开通
回复

使用道具 举报

懒得打字嘛,点击右侧快捷回复 【右侧内容,后台自定义】
您需要登录后才可以回帖 登录 | 立即注册

本版积分规则

QQ|Archiver|手机版|小黑屋| 中国高清网 |网站地图

GMT+8, 2019-11-22 03:41 , Processed in 0.226849 second(s), 37 queries .

Powered by HDchina X3.4

Copyright 2017-2019©HDchina.All right reserved

返回顶部 联系我们