查看: 36|回复: 0

[喜剧片] 卧底兄弟2 Undercover.Brother.2.2019.1080p.WEB-DL.DD5.1.H264-FGT 3.27GB

[复制链接]

 成长值: 3210

级别:资源管理组

注册时间
2017-10-20
最后登录
2019-11-20
听众
1
收听
0
主题
87221
蓝光币
63016 枚
贡献
11580 点
发表于 2019-11-5 21:15:04 | 显示全部楼层 |阅读模式
MV5BNWRmN2NiZjYtOGJmNy00NGFhLTk5MTktNzgyNGYzMWQ5NmU3XkEyXkFqcGdeQXVyNDExODY2MjU@._V1_.jpg

译  名 卧底兄弟2
片  名 Undercover Brother 2
年  代 2020
产  地 美国
类  别 笑剧
语  言 英语
IMDb链接  https://www.imdb.com/title/tt6843446
豆瓣评分 0/10 from 0 users
豆瓣链接 https://movie.douban.com/subject/33383342/
导  演 Leslie Small
主  演 迈克尔·加·怀特 Michael Jai White
       巴瑞·波斯威克 Barry Bostwick


简  介  

  A sequel to the 2002 comedy, "Undercover Brother".
  1. Video
  2. ID                                       : 1
  3. Format                                   : AVC
  4. Format/Info                              : Advanced Video Codec
  5. Format profile                           : High@L4
  6. Format settings                          : CABAC / 4 Ref Frames
  7. Format settings, CABAC                   : Yes
  8. Format settings, Reference frames        : 4 frames
  9. Codec ID                                 : V_MPEG4/ISO/AVC
  10. Duration                                 : 1 h 24 min
  11. Bit rate                                 : 5 147 kb/s
  12. Width                                    : 1 916 pixels
  13. Height                                   : 1 072 pixels
  14. Display aspect ratio                     : 16:9
  15. Frame rate mode                          : Constant
  16. Frame rate                               : 23.976 (23976/1000) FPS
  17. Color space                              : YUV
  18. Chroma subsampling                       : 4:2:0
  19. Bit depth                                : 8 bits
  20. Scan type                                : Progressive
  21. Bits/(Pixel*Frame)                       : 0.105
  22. Stream size                              : 3.04 GiB (93%)
  23. Title                                    : Undercover.Brother.2.2019.1080p.WEB-DL.DD5.1.H264-FGT
  24. Language                                 : English
  25. Default                                  : Yes
  26. Forced                                   : No
  27. Color range                              : Limited
  28. Color primaries                          : BT.709
  29. Transfer characteristics                 : BT.709
  30. Matrix coefficients                      : BT.709

  31. Audio
  32. ID                                       : 2
  33. Format                                   : AC-3
  34. Format/Info                              : Audio Coding 3
  35. Commercial name                          : Dolby Digital
  36. Codec ID                                 : A_AC3
  37. Duration                                 : 1 h 24 min
  38. Bit rate mode                            : Constant
  39. Bit rate                                 : 384 kb/s
  40. Channel(s)                               : 6 channels
  41. Channel layout                           : L R C LFE Ls Rs
  42. Sampling rate                            : 48.0 kHz
  43. Frame rate                               : 31.250 FPS (1536 SPF)
  44. Bit depth                                : 16 bits
  45. Compression mode                         : Lossy
  46. Stream size                              : 232 MiB (7%)
  47. Title                                    : Undercover.Brother.2.2019.1080p.WEB-DL.DD5.1.H264-FGT
  48. Language                                 : English
  49. Service kind                             : Complete Main
  50. Default                                  : Yes
  51. Forced                                   : No

  52. Text
  53. ID                                       : 3
  54. Format                                   : UTF-8
  55. Codec ID                                 : S_TEXT/UTF8
  56. Codec ID/Info                            : UTF-8 Plain Text
  57. Duration                                 : 1 h 20 min
  58. Bit rate                                 : 105 b/s
  59. Count of elements                        : 1513
  60. Stream size                              : 62.4 KiB (0%)
  61. Language                                 : English
  62. Default                                  : Yes
  63. Forced                                   : No

  64. Menu
  65. 00:00:00.000                             : en:1
  66. 00:03:04.059                             : en:2
  67. 00:07:04.466                             : en:3
  68. 00:12:11.314                             : en:4
  69. 00:15:37.228                             : en:5
  70. 00:20:04.202                             : en:6
  71. 00:27:13.172                             : en:7
  72. 00:30:24.654                             : en:8
  73. 00:37:01.675                             : en:9
  74. 00:42:14.738                             : en:10
  75. 00:45:57.085                             : en:11
  76. 00:49:42.809                             : en:12
  77. 00:53:18.524                             : en:13
  78. 00:57:41.870                             : en:14
  79. 01:02:36.538                             : en:15
  80. 01:06:17.342                             : en:16
  81. 01:10:33.221                             : en:17
  82. 01:13:20.763                             : en:18
  83. 01:18:45.586                             : en:19
  84. 01:21:32.293                             : en:20
复制代码

卧底兄弟2 Undercover.Brother.2.2019.1080p.WEB-DL.DD5.1.H264-FGT 3.27GB-1.png 卧底兄弟2 Undercover.Brother.2.2019.1080p.WEB-DL.DD5.1.H264-FGT 3.27GB-2.png 卧底兄弟2 Undercover.Brother.2.2019.1080p.WEB-DL.DD5.1.H264-FGT 3.27GB-3.png







VIP会员免费任意下载本站所有资源!---点击开通
回复

使用道具 举报

懒得打字嘛,点击右侧快捷回复 【右侧内容,后台自定义】
您需要登录后才可以回帖 登录 | 立即注册

本版积分规则

QQ|Archiver|手机版|小黑屋| 中国高清网 |网站地图

GMT+8, 2019-11-20 09:41 , Processed in 0.239836 second(s), 37 queries .

Powered by HDchina X3.4

Copyright 2017-2019©HDchina.All right reserved

返回顶部 联系我们