查看: 10|回复: 0

[剧情片] 墓地凶灵 Ghost.In.The.Graveyard.2019.1080p.WEB-DL.DD5.1.H264-FGT 3.20GB

[复制链接]

 成长值: 3160

级别:资源管理组

注册时间
2017-10-20
最后登录
2019-11-15
听众
1
收听
0
主题
86768
蓝光币
61946 枚
贡献
11126 点
发表于 2019-11-5 21:12:12 | 显示全部楼层 |阅读模式
墓地凶灵 Ghost.In.The.Graveyard.2019.1080p.WEB-DL.DD5.1.H264-FGT 3.20GB-1.png

译  名 墓地凶灵
片  名 Ghost in the Graveyard
年  代 2018
产  地 美国
类  别 剧情 / 行动 / 可骇
语  言 英语
上映日期 2018-10-15(美国)
IMDb评分  8.1/10 from 234 users
IMDb链接  https://www.imdb.com/title/tt7124092
豆瓣评分 0/10 from 0 users
豆瓣链接 https://movie.douban.com/subject/27169625/
导  演 Charlie Comparetto
编  剧 Charlie Comparetto
主  演 Maria Olsen
       Dane West
       Tony Head
       Jacqi Vene
       Zebedee Row
       Shiloh Verrico
       Vanessa Urzia
       Faye Giordano
       Grace Narducci
       Olivia Larsen
       Karen Xerri
       Kylie Kiss
       Danielle Muehlen
       Winslow Fegley
       Mary Anisi


标  签 惊悚 | 可骇 | 阿飘不甘孤单系列 | 诡异 | 美国电影 | 美国 | 灵异 | 可骇片

简  介  

  A small town comes under the thumb of Martha, a ghost who returns to haunt the children who witnessed her death during a "game" of Ghost in the Graveyard as young children.
  1. Video
  2. ID                                       : 1
  3. Format                                   : AVC
  4. Format/Info                              : Advanced Video Codec
  5. Format profile                           : High@L4
  6. Format settings                          : CABAC / 5 Ref Frames
  7. Format settings, CABAC                   : Yes
  8. Format settings, Reference frames        : 5 frames
  9. Codec ID                                 : V_MPEG4/ISO/AVC
  10. Duration                                 : 1 h 32 min
  11. Bit rate                                 : 4 552 kb/s
  12. Width                                    : 1 912 pixels
  13. Height                                   : 792 pixels
  14. Display aspect ratio                     : 2.40:1
  15. Frame rate mode                          : Constant
  16. Frame rate                               : 23.976 (24000/1001) FPS
  17. Color space                              : YUV
  18. Chroma subsampling                       : 4:2:0
  19. Bit depth                                : 8 bits
  20. Scan type                                : Progressive
  21. Bits/(Pixel*Frame)                       : 0.125
  22. Stream size                              : 2.95 GiB (92%)
  23. Title                                    : Ghost.In.The.Graveyard.2019.1080p.WEB-DL.DD5.1.H264-FGT
  24. Language                                 : English
  25. Default                                  : Yes
  26. Forced                                   : No
  27. Color range                              : Limited
  28. Color primaries                          : BT.709
  29. Transfer characteristics                 : BT.709
  30. Matrix coefficients                      : BT.709

  31. Audio
  32. ID                                       : 2
  33. Format                                   : AC-3
  34. Format/Info                              : Audio Coding 3
  35. Commercial name                          : Dolby Digital
  36. Codec ID                                 : A_AC3
  37. Duration                                 : 1 h 32 min
  38. Bit rate mode                            : Constant
  39. Bit rate                                 : 384 kb/s
  40. Channel(s)                               : 6 channels
  41. Channel layout                           : L R C LFE Ls Rs
  42. Sampling rate                            : 48.0 kHz
  43. Frame rate                               : 31.250 FPS (1536 SPF)
  44. Bit depth                                : 16 bits
  45. Compression mode                         : Lossy
  46. Stream size                              : 255 MiB (8%)
  47. Title                                    : Ghost.In.The.Graveyard.2019.1080p.WEB-DL.DD5.1.H264-FGT
  48. Language                                 : English
  49. Service kind                             : Complete Main
  50. Default                                  : Yes
  51. Forced                                   : No

  52. Text
  53. ID                                       : 3
  54. Format                                   : UTF-8
  55. Codec ID                                 : S_TEXT/UTF8
  56. Codec ID/Info                            : UTF-8 Plain Text
  57. Duration                                 : 1 h 31 min
  58. Bit rate                                 : 63 b/s
  59. Count of elements                        : 1313
  60. Stream size                              : 42.4 KiB (0%)
  61. Language                                 : English
  62. Default                                  : Yes
  63. Forced                                   : No

  64. Menu
  65. 00:00:00.000                             : en:Chapter 1
  66. 00:11:13.673                             : en:Chapter 2
  67. 00:20:22.221                             : en:Chapter 3
  68. 00:30:03.802                             : en:Chapter 4
  69. 00:41:59.517                             : en:Chapter 5
  70. 00:48:58.935                             : en:Chapter 6
  71. 01:00:05.601                             : en:Chapter 7
  72. 01:09:59.194                             : en:Chapter 8
  73. 01:20:41.835                             : en:Chapter 9
  74. 01:29:53.386                             : en:Chapter 10
复制代码

墓地凶灵 Ghost.In.The.Graveyard.2019.1080p.WEB-DL.DD5.1.H264-FGT 3.20GB-2.png 墓地凶灵 Ghost.In.The.Graveyard.2019.1080p.WEB-DL.DD5.1.H264-FGT 3.20GB-3.png 211153w0ix00n9ss66a6at.png







VIP会员免费任意下载本站所有资源!---点击开通
回复

使用道具 举报

懒得打字嘛,点击右侧快捷回复 【右侧内容,后台自定义】
您需要登录后才可以回帖 登录 | 立即注册

本版积分规则

QQ|Archiver|手机版|小黑屋| 中国高清网 |网站地图 

GMT+8, 2019-11-15 20:15 , Processed in 0.214946 second(s), 37 queries .

Powered by HDchina X3.4

Copyright 2017-2019©HDchina.All right reserved

返回顶部 联系我们