查看: 9|回复: 0

[剧情片] 母亲的春天 The.Mother.2003.1080p.WEBRip.x264-RARBG 2.14GB

[复制链接]

 成长值: 3160

级别:资源管理组

注册时间
2017-10-20
最后登录
2019-11-11
听众
1
收听
0
主题
86761
蓝光币
61863 枚
贡献
11119 点
发表于 2019-11-5 21:06:30 | 显示全部楼层 |阅读模式
母亲的春季 The.Mother.2003.1080p.WEBRip.x264-RARBG 2.14GB-1.png

译  名 母亲的春季
片  名 The Mother
年  代 2003
产  地 英国
类  别 剧情 / 恋爱
语  言 英语
上映日期 2003-10-09
IMDb评分  6.7/10 from 3823 users
IMDb链接  https://www.imdb.com/title/tt0323298
豆瓣评分 6.9/10 from 200 users
豆瓣链接 https://movie.douban.com/subject/1442622/
片  长 112 分钟
导  演 罗杰·米歇尔 Roger Michell
编  剧 汉尼夫·库雷什 Hanif Kureishi
主  演 安妮·雷德 Anne Reid
       丹尼尔·克雷格 Daniel Craig
       斯蒂文·麦金托什 Steven Mackintosh


标  签 英国 | 伦理 | 英国电影 | 恋爱 | DanielCraig | 2003 | 丹尼尔·克雷格 | 母亲的春季

简  介  

  安妮·瑞德饰演60多岁的母亲may,在伦敦的女儿Paula的住处和丹尼尔·克雷格饰演的女儿的男朋友发生了一场希奇的忘年爱情。当女儿发现自己的男朋友和自己的母亲居然发生了不服常的关系时,一场家庭战争就起头了!母亲最初会做出什么样的决定呢?

获奖情况  

  第57届英国电影妹院奖(2004)
  电影奖 最好女配角(提名) 安妮·雷德

  第7届上海国际电影节(2004)
  金爵奖 最好影片(提名) 罗杰·米歇尔
  1. Video
  2. ID                                       : 1
  3. Format                                   : AVC
  4. Format/Info                              : Advanced Video Codec
  5. Format profile                           : High@L4
  6. Format settings                          : CABAC / 4 Ref Frames
  7. Format settings, CABAC                   : Yes
  8. Format settings, Reference frames        : 4 frames
  9. Codec ID                                 : avc1
  10. Codec ID/Info                            : Advanced Video Coding
  11. Duration                                 : 1 h 52 min
  12. Bit rate                                 : 2 500 kb/s
  13. Width                                    : 1 920 pixels
  14. Height                                   : 1 032 pixels
  15. Display aspect ratio                     : 1.85:1
  16. Frame rate mode                          : Constant
  17. Frame rate                               : 23.976 (23976/1000) FPS
  18. Color space                              : YUV
  19. Chroma subsampling                       : 4:2:0
  20. Bit depth                                : 8 bits
  21. Scan type                                : Progressive
  22. Bits/(Pixel*Frame)                       : 0.053
  23. Stream size                              : 1.96 GiB (92%)
  24. Writing library                          : x264 core 152 r2851M ba24899
  25. Encoding settings                        : cabac=1 / ref=4 / deblock=1:-1:-1 / analyse=0x3:0x113 / me=umh / subme=9 / psy=1 / psy_rd=1.00:0.15 / mixed_ref=1 / me_range=24 / chroma_me=1 / trellis=2 / 8x8dct=1 / cqm=0 / deadzone=21,11 / fast_pskip=1 / chroma_qp_offset=-3 / threads=16 / lookahead_threads=4 / sliced_threads=0 / nr=0 / decimate=1 / interlaced=0 / bluray_compat=0 / constrained_intra=0 / bframes=3 / b_pyramid=2 / b_adapt=2 / b_bias=0 / direct=3 / weightb=1 / open_gop=0 / weightp=2 / keyint=250 / keyint_min=25 / scenecut=40 / intra_refresh=0 / rc_lookahead=50 / rc=2pass / mbtree=1 / bitrate=2500 / ratetol=1.0 / qcomp=0.60 / qpmin=0 / qpmax=69 / qpstep=4 / cplxblur=20.0 / qblur=0.5 / vbv_maxrate=31250 / vbv_bufsize=31250 / nal_hrd=none / filler=0 / ip_ratio=1.40 / aq=3:1.00
  26. Encoded date                             : UTC 2019-11-04 22:24:10
  27. Tagged date                              : UTC 2019-11-04 22:24:10
  28. Codec configuration box                  : avcC

  29. Audio
  30. ID                                       : 2
  31. Format                                   : AAC LC
  32. Format/Info                              : Advanced Audio Codec Low Complexity
  33. Codec ID                                 : mp4a-40-2
  34. Duration                                 : 1 h 52 min
  35. Bit rate mode                            : Constant
  36. Bit rate                                 : 224 kb/s
  37. Channel(s)                               : 6 channels
  38. Channel layout                           : C L R Ls Rs LFE
  39. Sampling rate                            : 48.0 kHz
  40. Frame rate                               : 46.875 FPS (1024 SPF)
  41. Compression mode                         : Lossy
  42. Stream size                              : 180 MiB (8%)
  43. Language                                 : English
  44. Default                                  : Yes
  45. Alternate group                          : 1
  46. Encoded date                             : UTC 2019-11-04 22:24:10
  47. Tagged date                              : UTC 2019-11-04 22:24:10
复制代码

母亲的春季 The.Mother.2003.1080p.WEBRip.x264-RARBG 2.14GB-2.png 210437atwtv5hoo5jhot2q.png 母亲的春季 The.Mother.2003.1080p.WEBRip.x264-RARBG 2.14GB-4.png







VIP会员免费任意下载本站所有资源!---点击开通
回复

使用道具 举报

懒得打字嘛,点击右侧快捷回复 【右侧内容,后台自定义】
您需要登录后才可以回帖 登录 | 立即注册

本版积分规则

QQ|Archiver|手机版|小黑屋| 中国高清网 |网站地图 

GMT+8, 2019-11-15 11:10 , Processed in 0.245734 second(s), 37 queries .

Powered by HDchina X3.4

Copyright 2017-2019©HDchina.All right reserved

返回顶部 联系我们