查看: 61|回复: 0

[动画片] 猫与桃花源 Cats.and.Peachtopia.2018.1080p.BluRay.x264-NTROPiC 5.46GB

[复制链接]

 成长值: 3210

级别:资源管理组

注册时间
2017-10-20
最后登录
2019-11-20
听众
1
收听
0
主题
87221
蓝光币
63030 枚
贡献
11580 点
发表于 2019-11-5 17:57:14 | 显示全部楼层 |阅读模式
猫与桃花源 Cats.and.Peachtopia.2018.1080p.BluRay.x264-NTROPiC 5.46GB-1.png

译  名 Cats and Peachtopia / 猫咪妈咪HOME(港)
片  名 猫与桃花源
年  代 2018
产  地 中国大陆
类  别 动画 / 家庭 / 冒险
语  言 汉语普通话
上映日期 2018-04-05(中国大陆)
IMDb评分  5.0/10 from 313 users
IMDb链接  https://www.imdb.com/title/tt7886614
豆瓣评分 6.2/10 from 5682 users
豆瓣链接 https://movie.douban.com/subject/27114911/
片  长 105分钟
导  演 王微 Gary Wang
编  剧 王微 Gary Wang
主  演 李宇峰 Yufeng Li
       杨砚铎 Yanze Yang
       周华健 Emil Chau
       张喆 Zhe Zhang
       陈霖生 Linsheng Chen


标  签 动画 | 猫 | 亲情 | 冒险 | 中国大陆 | 儿童 | 2018 | 笑剧

简  介  

  一只经常在窗台发愣的家猫毯子,一向以来和儿子斗篷安逸地生活在城市的一座高楼公寓中。有一天毯子不能反面斗篷别离踏上冒险旅程,去寻觅传闻中的猫的桃花源。与此同时,毯子必须面临心中一段不愿提起的往事,也许这也是毯子惧怕围面的天下,不愿意分开家的重要缘由......

获奖情况  

  第55届台北金马影展(2018)
  金马奖 最好动画长片(提名) 王微
  1. Video
  2. ID                                       : 1
  3. Format                                   : AVC
  4. Format/Info                              : Advanced Video Codec
  5. Format profile                           : High@L4
  6. Format settings                          : CABAC / 5 Ref Frames
  7. Format settings, CABAC                   : Yes
  8. Format settings, Reference frames        : 5 frames
  9. Codec ID                                 : V_MPEG4/ISO/AVC
  10. Duration                                 : 1 h 27 min
  11. Bit rate                                 : 7 449 kb/s
  12. Width                                    : 1 920 pixels
  13. Height                                   : 800 pixels
  14. Display aspect ratio                     : 2.40:1
  15. Frame rate mode                          : Constant
  16. Frame rate                               : 24.000 FPS
  17. Color space                              : YUV
  18. Chroma subsampling                       : 4:2:0
  19. Bit depth                                : 8 bits
  20. Scan type                                : Progressive
  21. Bits/(Pixel*Frame)                       : 0.202
  22. Stream size                              : 4.54 GiB (83%)
  23. Writing library                          : x264 core 157 r2969 d4099dd
  24. Encoding settings                        : cabac=1 / ref=5 / deblock=1:-1:-1 / analyse=0x3:0x133 / me=umh / subme=10 / psy=1 / psy_rd=0.95:0.00 / mixed_ref=1 / me_range=24 / chroma_me=1 / trellis=2 / 8x8dct=1 / cqm=0 / deadzone=21,11 / fast_pskip=0 / chroma_qp_offset=-4 / threads=18 / lookahead_threads=1 / sliced_threads=0 / slices=4 / nr=0 / decimate=1 / interlaced=0 / bluray_compat=0 / constrained_intra=0 / bframes=3 / b_pyramid=2 / b_adapt=2 / b_bias=0 / direct=3 / weightb=1 / open_gop=0 / weightp=2 / keyint=240 / keyint_min=24 / scenecut=40 / intra_refresh=0 / rc=2pass / mbtree=0 / bitrate=7449 / ratetol=2.0 / qcomp=0.60 / qpmin=0 / qpmax=69 / qpstep=4 / cplxblur=20.0 / qblur=0.5 / ip_ratio=1.40 / pb_ratio=1.30 / aq=2:0.80
  25. Language                                 : English
  26. Default                                  : Yes
  27. Forced                                   : No

  28. Audio
  29. ID                                       : 2
  30. Format                                   : DTS
  31. Format/Info                              : Digital Theater Systems
  32. Codec ID                                 : A_DTS
  33. Duration                                 : 1 h 27 min
  34. Bit rate mode                            : Constant
  35. Bit rate                                 : 1 509 kb/s
  36. Channel(s)                               : 6 channels
  37. Channel layout                           : C L R Ls Rs LFE
  38. Sampling rate                            : 48.0 kHz
  39. Frame rate                               : 93.750 FPS (512 SPF)
  40. Bit depth                                : 24 bits
  41. Compression mode                         : Lossy
  42. Stream size                              : 942 MiB (17%)
  43. Language                                 : English
  44. Default                                  : Yes
  45. Forced                                   : Yes

  46. Menu
  47. 00:00:00.000                             : it:Capitolo 01
  48. 00:04:26.708                             : it:Capitolo 02
  49. 00:08:16.958                             : it:Capitolo 03
  50. 00:12:11.708                             : it:Capitolo 04
  51. 00:16:42.833                             : it:Capitolo 05
  52. 00:21:00.708                             : it:Capitolo 06
  53. 00:24:57.166                             : it:Capitolo 07
  54. 00:28:55.666                             : it:Capitolo 08
  55. 00:33:15.333                             : it:Capitolo 09
  56. 00:37:32.416                             : it:Capitolo 10
  57. 00:41:37.416                             : it:Capitolo 11
  58. 00:46:38.500                             : it:Capitolo 12
  59. 00:50:34.750                             : it:Capitolo 13
  60. 00:54:45.000                             : it:Capitolo 14
  61. 00:59:32.166                             : it:Capitolo 15
  62. 01:03:41.916                             : it:Capitolo 16
  63. 01:08:18.291                             : it:Capitolo 17
  64. 01:13:20.416                             : it:Capitolo 18
  65. 01:17:26.541                             : it:Capitolo 19
  66. 01:23:26.875                             : it:Capitolo 20
复制代码

猫与桃花源 Cats.and.Peachtopia.2018.1080p.BluRay.x264-NTROPiC 5.46GB-2.png







VIP会员免费任意下载本站所有资源!---点击开通
回复

使用道具 举报

懒得打字嘛,点击右侧快捷回复 【右侧内容,后台自定义】
您需要登录后才可以回帖 登录 | 立即注册

本版积分规则

QQ|Archiver|手机版|小黑屋| 中国高清网 |网站地图

GMT+8, 2019-11-20 10:13 , Processed in 0.240983 second(s), 37 queries .

Powered by HDchina X3.4

Copyright 2017-2019©HDchina.All right reserved

返回顶部 联系我们