查看: 8|回复: 0

[纪录片] 波士顿马拉松 Boston.2017.1080p.AMZN.WEBRip.DDP5.1.x264-monkee 8.55GB

[复制链接]

 成长值: 3160

级别:资源管理组

注册时间
2017-10-20
最后登录
2019-11-15
听众
1
收听
0
主题
86798
蓝光币
61952 枚
贡献
11156 点
发表于 2019-11-5 17:47:57 | 显示全部楼层 |阅读模式
174717x4bj48rh2eb2ryyi.png

译  名 波士顿马拉松
片  名 Boston
年  代 2017
产  地 美国
类  别 记载片
语  言 英语
上映日期 2017-04-19(美国)
IMDb评分  7.4/10 from 88 users
IMDb链接  https://www.imdb.com/title/tt6654082
豆瓣评分 0/10 from 0 users
豆瓣链接 https://movie.douban.com/subject/27030983/
片  长 114分钟
导  演 Jon Dunham
主  演 马特·达蒙 Matt Damon
       Robert de Castella
       Rosa Mota
       Bill Rodgers
       Joan Benoit Samuelson


标  签 记载片 | 马拉松 | 波士顿 | 跑步 | 美国 | 紀錄片 | 体育 | 百年赛事

简  介  

  The film chronicles the story of the iconic race from its humble origins starting with only 15 runners to the present day. In addition to highlighting the event as the oldest annually contested marathon in the world, the film showcases many of the most important moments in more than a century of the race’s history. Evolving from a working man’s challenge to welcoming foreign athletes and eventually women, Boston becomes the stage for many firsts and in no small part the event that paved the way for the modern marathon and mass participatory sports.
  Following the tragic events of 2013, BOSTON records the preparations and eventual running of the 118th Boston Marathon one year later when runners and community gather once again in support of one another for what will be the most meaningful race of all.
  Produced and directed by award winning filmmaker/marathoner Jon Dunham (Spirit of the Marathon I & II) and produced by Academy Award nominee Megan Williams, and executive produced by Academy Award nominee Frank Marshall (Back to the Future, The Curious Case of Benjamin Button, Sully), BOSTON is more than a running film. It is a timeless story about triumph over adversity for runner and non-runner alike.
  1. Video
  2. ID                                       : 1
  3. Format                                   : AVC
  4. Format/Info                              : Advanced Video Codec
  5. Format profile                           : High@L4
  6. Format settings                          : CABAC / 4 Ref Frames
  7. Format settings, CABAC                   : Yes
  8. Format settings, Reference frames        : 4 frames
  9. Codec ID                                 : V_MPEG4/ISO/AVC
  10. Duration                                 : 1 h 54 min
  11. Bit rate mode                            : Variable
  12. Bit rate                                 : 10.1 Mb/s
  13. Maximum bit rate                         : 15.0 Mb/s
  14. Width                                    : 1 920 pixels
  15. Height                                   : 1 080 pixels
  16. Display aspect ratio                     : 16:9
  17. Frame rate mode                          : Constant
  18. Frame rate                               : 23.976 (24000/1001) FPS
  19. Color space                              : YUV
  20. Chroma subsampling                       : 4:2:0
  21. Bit depth                                : 8 bits
  22. Scan type                                : Progressive
  23. Bits/(Pixel*Frame)                       : 0.202
  24. Stream size                              : 8.03 GiB (94%)
  25. Default                                  : Yes
  26. Forced                                   : No
  27. Color range                              : Limited
  28. Color primaries                          : BT.709
  29. Transfer characteristics                 : BT.709
  30. Matrix coefficients                      : BT.709

  31. Audio
  32. ID                                       : 2
  33. Format                                   : E-AC-3
  34. Format/Info                              : Enhanced AC-3
  35. Commercial name                          : Dolby Digital Plus
  36. Codec ID                                 : A_EAC3
  37. Duration                                 : 1 h 54 min
  38. Bit rate mode                            : Constant
  39. Bit rate                                 : 640 kb/s
  40. Channel(s)                               : 6 channels
  41. Channel layout                           : L R C LFE Ls Rs
  42. Sampling rate                            : 48.0 kHz
  43. Frame rate                               : 31.250 FPS (1536 SPF)
  44. Compression mode                         : Lossy
  45. Stream size                              : 523 MiB (6%)
  46. Language                                 : English
  47. Service kind                             : Complete Main
  48. Default                                  : Yes
  49. Forced                                   : No

  50. Text #1
  51. ID                                       : 3
  52. Format                                   : UTF-8
  53. Codec ID                                 : S_TEXT/UTF8
  54. Codec ID/Info                            : UTF-8 Plain Text
  55. Duration                                 : 1 h 53 min
  56. Bit rate                                 : 79 b/s
  57. Count of elements                        : 1723
  58. Stream size                              : 65.7 KiB (0%)
  59. Language                                 : English
  60. Default                                  : No
  61. Forced                                   : No

  62. Text #2
  63. ID                                       : 4
  64. Format                                   : UTF-8
  65. Codec ID                                 : S_TEXT/UTF8
  66. Codec ID/Info                            : UTF-8 Plain Text
  67. Duration                                 : 1 h 53 min
  68. Bit rate                                 : 86 b/s
  69. Count of elements                        : 1864
  70. Stream size                              : 72.0 KiB (0%)
  71. Title                                    : SDH
  72. Language                                 : English
  73. Default                                  : No
  74. Forced                                   : No
复制代码

波士顿马拉松 Boston.2017.1080p.AMZN.WEBRip.DDP5.1.x264-monkee 8.55GB-2.png 波士顿马拉松 Boston.2017.1080p.AMZN.WEBRip.DDP5.1.x264-monkee 8.55GB-3.png 波士顿马拉松 Boston.2017.1080p.AMZN.WEBRip.DDP5.1.x264-monkee 8.55GB-4.png







VIP会员免费任意下载本站所有资源!---点击开通
回复

使用道具 举报

懒得打字嘛,点击右侧快捷回复 【右侧内容,后台自定义】
您需要登录后才可以回帖 登录 | 立即注册

本版积分规则

QQ|Archiver|手机版|小黑屋| 中国高清网 |网站地图 

GMT+8, 2019-11-15 21:01 , Processed in 0.576512 second(s), 37 queries .

Powered by HDchina X3.4

Copyright 2017-2019©HDchina.All right reserved

返回顶部 联系我们