查看: 8|回复: 0

[纪录片] 舞台上的每一步/舞台上的每一小步 Every.Little.Step.2008.1080p.AMZN.WEBRip.DD5.1.x264-QOQ 8.89GB

[复制链接]

 成长值: 3160

级别:资源管理组

注册时间
2017-10-20
最后登录
2019-11-11
听众
1
收听
0
主题
86761
蓝光币
61857 枚
贡献
11119 点
发表于 2019-11-5 16:46:28 | 显示全部楼层 |阅读模式
舞台上的每一步/舞台上的每一小步 Every.Little.Step.2008.1080p.AMZN.WEBRip.DD5.1.x264-QOQ 8.89GB-1.png

译  名 舞台上的每一步 / 舞台上的每一小步
片  名 Every Little Step
年  代 2008
产  地 美国
类  别 记载片 / 音乐
语  言 英语
上映日期 2008-10-25
IMDb评分  7.5/10 from 1318 users
IMDb链接  https://www.imdb.com/title/tt0977648
豆瓣评分 8.7/10 from 124 users
豆瓣链接 https://movie.douban.com/subject/3191099/
片  长 Canada: 96 分钟(Toronto International Film Festival)
导  演 Adam Del Deo / James D. Stern
主  演 Marvin Hamlisch
       Donna McKechnie
       Ramon Flowers
       Michael Bennett
       Bob Avian


标  签 记载片 | 美国 | 歌舞 | Documentary | 音乐剧 | Musical | 2008 | 记载

简  介  

  暂无相关剧情先容

获奖情况  

  第43届堪萨斯影评人协会奖(2010)
  最好记载片
  1. Video
  2. ID                                       : 1
  3. Format                                   : AVC
  4. Format/Info                              : Advanced Video Codec
  5. Format profile                           : High@L4
  6. Format settings                          : CABAC / 4 Ref Frames
  7. Format settings, CABAC                   : Yes
  8. Format settings, Reference frames        : 4 frames
  9. Codec ID                                 : V_MPEG4/ISO/AVC
  10. Duration                                 : 1 h 33 min
  11. Bit rate                                 : 13.0 Mb/s
  12. Width                                    : 1 920 pixels
  13. Height                                   : 1 080 pixels
  14. Display aspect ratio                     : 16:9
  15. Frame rate mode                          : Constant
  16. Frame rate                               : 23.976 (24000/1001) FPS
  17. Color space                              : YUV
  18. Chroma subsampling                       : 4:2:0
  19. Bit depth                                : 8 bits
  20. Scan type                                : Progressive
  21. Bits/(Pixel*Frame)                       : 0.262
  22. Stream size                              : 8.47 GiB (95%)
  23. Default                                  : Yes
  24. Forced                                   : No
  25. Color range                              : Limited
  26. Color primaries                          : BT.709
  27. Transfer characteristics                 : BT.709
  28. Matrix coefficients                      : BT.709

  29. Audio
  30. ID                                       : 2
  31. Format                                   : E-AC-3
  32. Format/Info                              : Enhanced AC-3
  33. Commercial name                          : Dolby Digital Plus
  34. Codec ID                                 : A_EAC3
  35. Duration                                 : 1 h 33 min
  36. Bit rate mode                            : Constant
  37. Bit rate                                 : 640 kb/s
  38. Channel(s)                               : 6 channels
  39. Channel layout                           : L R C LFE Ls Rs
  40. Sampling rate                            : 48.0 kHz
  41. Frame rate                               : 31.250 FPS (1536 SPF)
  42. Compression mode                         : Lossy
  43. Stream size                              : 427 MiB (5%)
  44. Language                                 : English
  45. Service kind                             : Complete Main
  46. Default                                  : Yes
  47. Forced                                   : No

  48. Text
  49. ID                                       : 3
  50. Format                                   : UTF-8
  51. Codec ID                                 : S_TEXT/UTF8
  52. Codec ID/Info                            : UTF-8 Plain Text
  53. Duration                                 : 1 h 31 min
  54. Bit rate                                 : 86 b/s
  55. Count of elements                        : 1550
  56. Stream size                              : 58.1 KiB (0%)
  57. Title                                    : SDH
  58. Language                                 : English
  59. Default                                  : No
  60. Forced                                   : No
复制代码

164522sadmmpqxpmydpqmx.png 舞台上的每一步/舞台上的每一小步 Every.Little.Step.2008.1080p.AMZN.WEBRip.DD5.1.x264-QOQ 8.89GB-3.png 舞台上的每一步/舞台上的每一小步 Every.Little.Step.2008.1080p.AMZN.WEBRip.DD5.1.x264-QOQ 8.89GB-4.png






VIP会员免费任意下载本站所有资源!---点击开通
回复

使用道具 举报

懒得打字嘛,点击右侧快捷回复 【右侧内容,后台自定义】
您需要登录后才可以回帖 登录 | 立即注册

本版积分规则

QQ|Archiver|手机版|小黑屋| 中国高清网 |网站地图 

GMT+8, 2019-11-15 10:31 , Processed in 0.253439 second(s), 37 queries .

Powered by HDchina X3.4

Copyright 2017-2019©HDchina.All right reserved

返回顶部 联系我们