查看: 9|回复: 0

[剧情片] 致命穿越 Fatal.Crossing.2018.1080p.AMZN.WEBRip.DDP5.1.x264-NTG 3.90GB

[复制链接]

 成长值: 3210

级别:资源管理组

注册时间
2017-10-20
最后登录
2019-11-20
听众
1
收听
0
主题
87221
蓝光币
63004 枚
贡献
11580 点
发表于 2019-11-5 16:44:46 | 显示全部楼层 |阅读模式
致命穿越 Fatal.Crossing.2018.1080p.AMZN.WEBRip.DDP5.1.x264-NTG 3.90GB-1.png

译  名 致命穿越 / 7x7
片  名 Fatal Crossing
年  代 2017
产  地 美国
类  别 剧情
语  言 英语
上映日期 2018-05-22(美国)
IMDb评分  3.3/10 from 114 users
IMDb链接  https://www.imdb.com/title/tt5622660
豆瓣评分 0/10 from 0 users
豆瓣链接 https://movie.douban.com/subject/26965135/
片  长 95分钟
导  演 Liam Hughes
编  剧 Liam Hughes / Katherine Yarbrough
主  演 德丽·海明威 Dree Hemingway
       凯蒂·张 Katie Chang
       James Chen


标  签 美国 | 2017 | 烂片 | 悬疑 | 剧情 | 美国电影 | 演员好丑! | 下

简  介  

  高飞技术企业家卡森为了应对新公司的期望和为他抱病的父亲供给办事的重任而饮酒。当他在同一天早晨在他的汽车停下来时,他的车被血沉没了,据报道,他的天下在试图与六月建立关系,他思疑自己能够是受害者的女朋友杀手.
  1. Video
  2. ID                                       : 1
  3. Format                                   : AVC
  4. Format/Info                              : Advanced Video Codec
  5. Format profile                           : High@L4
  6. Format settings                          : CABAC / 4 Ref Frames
  7. Format settings, CABAC                   : Yes
  8. Format settings, Reference frames        : 4 frames
  9. Codec ID                                 : V_MPEG4/ISO/AVC
  10. Duration                                 : 1 h 33 min
  11. Bit rate                                 : 5 336 kb/s
  12. Width                                    : 1 920 pixels
  13. Height                                   : 800 pixels
  14. Display aspect ratio                     : 2.40:1
  15. Frame rate mode                          : Constant
  16. Frame rate                               : 23.976 (24000/1001) FPS
  17. Color space                              : YUV
  18. Chroma subsampling                       : 4:2:0
  19. Bit depth                                : 8 bits
  20. Scan type                                : Progressive
  21. Bits/(Pixel*Frame)                       : 0.145
  22. Stream size                              : 3.48 GiB (89%)
  23. Default                                  : Yes
  24. Forced                                   : No
  25. Color range                              : Limited
  26. Color primaries                          : BT.709
  27. Transfer characteristics                 : BT.709
  28. Matrix coefficients                      : BT.709

  29. Audio
  30. ID                                       : 2
  31. Format                                   : E-AC-3
  32. Format/Info                              : Enhanced AC-3
  33. Commercial name                          : Dolby Digital Plus
  34. Codec ID                                 : A_EAC3
  35. Duration                                 : 1 h 33 min
  36. Bit rate mode                            : Constant
  37. Bit rate                                 : 640 kb/s
  38. Channel(s)                               : 6 channels
  39. Channel layout                           : L R C LFE Ls Rs
  40. Sampling rate                            : 48.0 kHz
  41. Frame rate                               : 31.250 FPS (1536 SPF)
  42. Compression mode                         : Lossy
  43. Stream size                              : 427 MiB (11%)
  44. Language                                 : English
  45. Service kind                             : Complete Main
  46. Default                                  : Yes
  47. Forced                                   : No

  48. Text
  49. ID                                       : 3
  50. Format                                   : UTF-8
  51. Codec ID                                 : S_TEXT/UTF8
  52. Codec ID/Info                            : UTF-8 Plain Text
  53. Duration                                 : 1 h 28 min
  54. Bit rate                                 : 48 b/s
  55. Count of elements                        : 1258
  56. Stream size                              : 31.4 KiB (0%)
  57. Title                                    : SDH
  58. Language                                 : English
  59. Default                                  : No
  60. Forced                                   : No
复制代码

164412u24i2avah02po1oj.png 致命穿越 Fatal.Crossing.2018.1080p.AMZN.WEBRip.DDP5.1.x264-NTG 3.90GB-3.png 致命穿越 Fatal.Crossing.2018.1080p.AMZN.WEBRip.DDP5.1.x264-NTG 3.90GB-4.png







VIP会员免费任意下载本站所有资源!---点击开通
回复

使用道具 举报

懒得打字嘛,点击右侧快捷回复 【右侧内容,后台自定义】
您需要登录后才可以回帖 登录 | 立即注册

本版积分规则

QQ|Archiver|手机版|小黑屋| 中国高清网 |网站地图

GMT+8, 2019-11-20 09:02 , Processed in 0.222094 second(s), 37 queries .

Powered by HDchina X3.4

Copyright 2017-2019©HDchina.All right reserved

返回顶部 联系我们