查看: 12|回复: 0

[剧情片] 没有我的日子/无我新生活 My.Life.Without.Me.2003.1080p.AMZN.WEBRip.DDP5.1.x264-monkee 11.02GB

[复制链接]

 成长值: 3160

级别:资源管理组

注册时间
2017-10-20
最后登录
2019-11-15
听众
1
收听
0
主题
86794
蓝光币
61952 枚
贡献
11152 点
发表于 2019-11-5 16:43:32 | 显示全部楼层 |阅读模式
没有我的日子/无我新生活 My.Life.Without.Me.2003.1080p.AMZN.WEBRip.DDP5.1.x264-monkee 11.02GB-1.png

译  名 没有我的日子 / 无我新生活 / 无我生活 / 无我的日子
片  名 My Life Without Me
年  代 2003
产  地 加拿大 / 西班牙
类  别 剧情 / 恋爱
语  言 英语
上映日期 2003-03-07
IMDb评分  7.5/10 from 23338 users
IMDb链接  https://www.imdb.com/title/tt0314412
豆瓣评分 8.0/10 from 4716 users
豆瓣链接 https://movie.douban.com/subject/1420010/
片  长 106 分钟
导  演 Isabel Coixet
编  剧 Isabel Coixet
主  演 Sarah Polley
       Amanda Plummer
       Mark Ruffalo
       Scott Speedman
       Leonor Watling
       Deborah Harry
       Alfred Molina


标  签 西班牙 | 女性 | 加拿大 | 恋爱 | 西班牙电影 | Life | 剧情 | 电影

简  介  

  尚不满24岁的清洁工安妮(Sarah Polley 饰)被确诊为癌症,只剩下两至三月的寿命,安妮的丈夫是她生射中第一个也是唯逐一个汉子,丈夫让她在17岁、19岁时别离生下女儿,入狱的父亲没法为她供给庇护,同母亲的关系又不甚杰出,一家四口居住在拖车里,所幸丈夫比来获得了修建泳池的工作。安妮决议将病情隐瞒家人,并写了十条身死前的愿望,包括找到又一个爱自己的汉子,为女儿预备未来生日的祝词并和一个继母,跟父亲见一次面和享用余下的人生。安妮在洗衣房里偶遇从阿拉斯加归来的丈量员,两人相互磨擦出了爱的火花。但她将满脑子只要节食计划的女同事前容给丈夫时却遭受了失利,未几一位与安妮同名的女邻人到来,她似乎是安妮理想的人选。一切工作在按步调实现,还有安妮的灭亡……
  本片获2003年大西洋电影节最好加拿大电影等多项嘉奖。

获奖情况  

  第53届柏林国际电影节(2003)
  金熊奖 最好影片(提名) 伊莎贝尔·科赛特
  1. Video
  2. ID : 1
  3. Format : AVC
  4. Format/Info : Advanced Video Codec
  5. Format profile : High@L4
  6. Format settings : CABAC / 4 Ref Frames
  7. Format settings, CABAC : Yes
  8. Format settings, Reference frames : 4 frames
  9. Codec ID : V_MPEG4/ISO/AVC
  10. Duration : 1 h 46 min
  11. Bit rate mode : Variable
  12. Bit rate : 14.2 Mb/s
  13. Maximum bit rate : 15.0 Mb/s
  14. Width : 1 920 pixels
  15. Height : 1 080 pixels
  16. Display aspect ratio : 16:9
  17. Frame rate mode : Constant
  18. Frame rate : 23.976 (24000/1001) FPS
  19. Color space : YUV
  20. Chroma subsampling : 4:2:0
  21. Bit depth : 8 bits
  22. Scan type : Progressive
  23. Bits/(Pixel*Frame) : 0.287
  24. Stream size : 10.5 GiB (96%)
  25. Default : Yes
  26. Forced : No
  27. Color range : Limited
  28. Color primaries : BT.709
  29. Transfer characteristics : BT.709
  30. Matrix coefficients : BT.709

  31. Audio
  32. ID : 2
  33. Format : E-AC-3
  34. Format/Info : Enhanced AC-3
  35. Commercial name : Dolby Digital Plus
  36. Codec ID : A_EAC3
  37. Duration : 1 h 46 min
  38. Bit rate mode : Constant
  39. Bit rate : 640 kb/s
  40. Channel(s) : 6 channels
  41. Channel layout : L R C LFE Ls Rs
  42. Sampling rate : 48.0 kHz
  43. Frame rate : 31.250 FPS (1536 SPF)
  44. Compression mode : Lossy
  45. Stream size : 485 MiB (4%)
  46. Language : English
  47. Service kind : Complete Main
  48. Default : Yes
  49. Forced : No

  50. Text #1
  51. ID : 3
  52. Format : UTF-8
  53. Codec ID : S_TEXT/UTF8
  54. Codec ID/Info : UTF-8 Plain Text
  55. Duration : 1 h 41 min
  56. Bit rate : 69 b/s
  57. Count of elements : 1637
  58. Stream size : 52.1 KiB (0%)
  59. Language : English
  60. Default : No
  61. Forced : No

  62. Text #2
  63. ID : 4
  64. Format : UTF-8
  65. Codec ID : S_TEXT/UTF8
  66. Codec ID/Info : UTF-8 Plain Text
  67. Duration : 1 h 41 min
  68. Bit rate : 71 b/s
  69. Count of elements : 1679
  70. Stream size : 53.1 KiB (0%)
  71. Title : SDH
  72. Language : English
  73. Default : No
  74. Forced : No
复制代码

没有我的日子/无我新生活 My.Life.Without.Me.2003.1080p.AMZN.WEBRip.DDP5.1.x264-monkee 11.02GB-2.png 没有我的日子/无我新生活 My.Life.Without.Me.2003.1080p.AMZN.WEBRip.DDP5.1.x264-monkee 11.02GB-3.png 没有我的日子/无我新生活 My.Life.Without.Me.2003.1080p.AMZN.WEBRip.DDP5.1.x264-monkee 11.02GB-4.png







VIP会员免费任意下载本站所有资源!---点击开通
回复

使用道具 举报

懒得打字嘛,点击右侧快捷回复 【右侧内容,后台自定义】
您需要登录后才可以回帖 登录 | 立即注册

本版积分规则

QQ|Archiver|手机版|小黑屋| 中国高清网 |网站地图 

GMT+8, 2019-11-15 20:56 , Processed in 0.252881 second(s), 37 queries .

Powered by HDchina X3.4

Copyright 2017-2019©HDchina.All right reserved

返回顶部 联系我们